conanlcg
超級版主

[2019] [韓國] [喜劇] [BD-1080P] 極限職業 Extreme.Job.2019.KOREAN.1080p.BluRay.x264.DTS-HD.MA.5.1-CHD 10.22GB

-->

帖子完整標題:極限職業 Extreme.Job.2019.KOREAN.1080p.BluRay.x264.DTS-HD.MA.5.1-CHD 10.22GB




◎譯  名 極限職業 / Extreme Job / 極端職業 / 極限行業 / 炸雞特攻隊(港) / 雞不可失(臺)
◎片  名 ????
◎年  代 2019
◎產  地 韓國
◎類  別 喜劇 / 動作 / 犯罪
◎語  言 韓語 / 漢語普通話 / 英語 / 日語
◎上映日期 2019-01-23(韓國)
◎IMDb評分 7.2/10 from 1759 users
◎IMDb鏈接 http://www.imdb.com/title/tt9541602
◎豆瓣評分 7.7/10 from 68246 users
◎豆瓣鏈接 https://movie.douban.com/subject/27597250/
◎片  長 111分鐘
◎導  演 李炳憲 Byeong-Heon Lee
◎編  劇 裴世英 Se-yeong Bae
◎主  演 柳承龍 Seung-yong Ryoo
      李東輝 Dong-Hwi Lee
      李荷妮 Ha-nui Lee
      陳善圭 Jin Sun-kyu
      申河均 Ha-kyun Shin


◎標  簽 韓國 | 喜劇 | 搞笑 | 警匪 | 犯罪 | 動作 | 2019 | 劇情

◎簡  介

  影片故事圍繞毒品偵察班而展開,毒品偵察班業績超差,面臨被撤銷的危機,但突然有了一個線索,偵察班全體成員決心搏一搏。于是,他們開始潛伏在一家炸雞店,監視毒販,然而這炸雞店業績也超差,高班長為了保住這個偵察的好地方,盤下了炸雞店。為了掩護身份,只能老老實實干起了炸雞的生意,沒想到其中一位警官卻做出了具有獨特口味炸雞,導致生意做的紅紅火火。

◎獲獎情況

  第55屆百想藝術大賞(2019)
  電影類 最佳男主角(提名) 柳承龍
  電影類 最佳男配角(提名) 陳善圭
  電影類 最佳女配角(提名) 李荷妮
  電影類 最佳新人男演員(提名) 孔明
  電影類 最佳編劇(提名) 裴世英
Video
ID : 1
Format : AVC
Format/Info : Advanced Video Codec
Format profile : [email protected]
Format settings : CABAC / 4 Ref Frames
Format settings, CABAC : Yes
Format settings, Reference frames : 4 frames
Codec ID : V_MPEG4/ISO/AVC
Duration : 1 h 51 min
Bit rate : 11.1 Mb/s
Width : 1 920 pixels
Height : 804 pixels
Display aspect ratio : 2.40:1
Frame rate mode : Constant
Frame rate : 24.000 FPS
Color space : YUV
Chroma subsampling : 4:2:0
Bit depth : 8 bits
Scan type : Progressive
Bits/(Pixel*Frame) : 0.299
Stream size : 8.60 GiB (84%)
Writing library : x264 core 157 r2867+150 7e91e0e t_mod_Custom_2 [[email protected] X86_64]
Encoding settings : cabac=1 / ref=4 / deblock=1:-3:-3 / analyse=0x3:0x133 / me=umh / subme=11 / psy=1 / fade_compensate=0.00 / psy_rd=0.90:0.10 / mixed_ref=1 / me_range=64 / chroma_me=1 / trellis=2 / 8x8dct=1 / cqm=0 / deadzone=21,11 / fast_pskip=0 / chroma_qp_offset=-4 / threads=25 / lookahead_threads=4 / sliced_threads=0 / nr=0 / decimate=1 / interlaced=0 / bluray_compat=0 / constrained_intra=0 / fgo=0 / bframes=8 / b_pyramid=2 / b_adapt=2 / b_bias=0 / direct=3 / weightb=1 / open_gop=0 / weightp=2 / keyint=250 / keyint_min=24 / scenecut=40 / intra_refresh=0 / rc_lookahead=60 / rc=crf / mbtree=0 / crf=18.0000 / qcomp=0.70 / qpmin=0:0:0 / qpmax=69:69:69 / qpstep=4 / vbv_maxrate=35000 / vbv_bufsize=35000 / crf_max=0.0 / nal_hrd=none / filler=0 / ip_ratio=1.40 / pb_ratio=1.30 / aq=3:1.00 / aq-sensitivity=10.00 / aq-factor=1.00:1.00:1.00 / aq2=0 / aq3=0
Language : Korean
Default : Yes
Forced : No

Audio
ID : 2
Format : DTS XLL
Format/Info : Digital Theater Systems
Commercial name : DTS-HD Master Audio
Codec ID : A_DTS
Duration : 1 h 51 min
Bit rate mode : Variable
Bit rate : 2 049 kb/s
Channel(s) : 6 channels
Channel layout : C L R Ls Rs LFE
Sampling rate : 48.0 kHz
Frame rate : 93.750 FPS (512 SPF)
Bit depth : 16 bits
Compression mode : Lossless
Stream size : 1.59 GiB (16%)
Language : Korean
Default : Yes
Forced : No

Text #1
ID : 3
Format : UTF-8
Codec ID : S_TEXT/UTF8
Codec ID/Info : UTF-8 Plain Text
Duration : 1 h 47 min
Bit rate : 52 b/s
Count of elements : 1607
Stream size : 41.5 KiB (0%)
Title : English-SRT
Language : English
Default : No
Forced : No

Text #2
ID : 4
Format : PGS
Muxing mode : zlib
Codec ID : S_HDMV/PGS
Codec ID/Info : Picture based subtitle format used on BDs/HD-DVDs
Duration : 1 h 47 min
Bit rate : 42.2 kb/s
Count of elements : 3212
Stream size : 32.3 MiB (0%)
Title : English-PGS
Language : English
Default : No
Forced : No

Text #3
ID : 5
Format : PGS
Muxing mode : zlib
Codec ID : S_HDMV/PGS
Codec ID/Info : Picture based subtitle format used on BDs/HD-DVDs
Duration : 1 h 46 min
Bit rate : 32.8 kb/s
Count of elements : 3205
Stream size : 25.1 MiB (0%)
Title : Chinese-PGS
Language : Chinese
Default : Yes
Forced : No

Menu
00:00:00.000 : en:絎?01 绔?
00:07:25.292 : en:絎?02 绔?
00:17:20.125 : en:絎?03 绔?
00:26:57.583 : en:絎?04 绔?
00:35:21.125 : en:絎?05 绔?
00:46:18.083 : en:絎?06 绔?
00:56:10.750 : en:絎?07 绔?
01:04:23.667 : en:絎?08 绔?
01:13:56.333 : en:絎?09 绔?
01:23:06.583 : en:絎?10 绔?
01:31:29.917 : en:絎?11 绔?
01:39:09.042 : en:絎?12 绔?





1 個附件 售價 大小 下載 時間

Extreme.Job.2019.KOREAN.1080p.BluRay.x264.DTS-HD.MA.5.1-CHD.torrent 0 金幣 51.63K 11627 次 3月前

#1樓
發帖時間:2019-09-08 15:24:58   |   回復數:8
liyouchai
隱世仙人♂
謝謝樓主分享資源
3月前 #2樓
911degrees
隱世仙人♂
非常感謝,謝謝分享
3月前 #3樓
show55667878
武林高手
感謝分享藍光版本
3月前 #4樓
wangzhuol
武林高手
謝謝版主分享
2月前 #5樓
BoatJ
小有名氣
謝謝分享,評分不錯的資源
1月前 #6樓
tanchoohoon
武林盟主
感謝樓主的無私分享
1月前 #7樓
逍遙行云
小有名氣
謝謝樓主的分享,非常感謝!
1月前 #8樓
kola13
一派掌門
感謝分享
1月前 #9樓
游客組