conanlcg
超級版主

[2019] [歐美] [劇情] [BD-1080P] 仲夏夜驚魂/仲夏 Midsommar.2019.1080p.BluRay.x264.DTS-HD.MA.5.1-FGT 12.83GB

-->

帖子完整標題:仲夏夜驚魂/仲夏 Midsommar.2019.1080p.BluRay.x264.DTS-HD.MA.5.1-FGT 12.83GB




◎譯  名 仲夏夜驚魂 / 仲夏 / 仲夏噩夢 / 仲夏節 / 仲夏魘(臺)
◎片  名 Midsommar
◎年  代 2019
◎產  地 美國
◎類  別 劇情 / 懸疑 / 驚悚 / 恐怖
◎語  言 英語 / 瑞典語
◎上映日期 2019-07-03(美國)
◎IMDb評分 7.6/10 from 38153 users
◎IMDb鏈接 http://www.imdb.com/title/tt8772262
◎豆瓣評分 7.2/10 from 1759 users
◎豆瓣鏈接 https://movie.douban.com/subject/30288638/
◎片  長 147分鐘
◎導  演 阿里·艾斯特 Ari Aster
◎編  劇 阿里·艾斯特 Ari Aster
◎主  演 弗洛倫斯·皮尤 Florence Pugh
      杰克·萊諾 Jack Reynor
      威爾·保爾特 Will Poulter
      威廉·杰克森·哈珀 William Jackson Harper
      朱莉婭·拉格納森 Julia Ragnarsson
      伯恩·安德森 Bj?rn Andrésen
      安娜·阿斯特羅姆 Anna ?str?m
      亨里克·諾倫 Henrik Norlén
      麗芙·姆瓊斯 Liv Mj?nes
      路易絲·彼得霍夫 Louise Peterhoff
      埃洛拉·托爾基亞 Ellora Torchia
      貢內爾·弗雷德 Gunnel Fred
      安琪·拉爾森 Anki Larsson
      拉斯·瓦林格 Lars V?ringer
      馬茨·布洛姆格倫 Mats Blomgren
      安德斯·貝克曼 Anders Beckman


◎標  簽 恐怖 | 驚悚 | 美國 | 懸疑 | 2019 | A24 | 宗教 | 劇情

◎簡  介

  杰克·萊諾、威爾·保爾特加盟阿里·艾斯特([遺傳厄運])執導的恐怖新片,主演弗洛倫斯·皮尤。故事講述皮尤、萊諾飾演的一對情侶來到瑞典鄉間參加一個夏季節日活動,沒想到整個活動都朝著暴力、詭異的方向發展。[遺傳厄運]已成為A24出品最賣座影片,新片仍由A24出品,目前正在布達佩斯拍攝。
Video
ID : 1
Format : AVC
Format/Info : Advanced Video Codec
Format profile : [email protected]
Format settings : CABAC / 4 Ref Frames
Format settings, CABAC : Yes
Format settings, Reference frames : 4 frames
Codec ID : V_MPEG4/ISO/AVC
Duration : 2 h 27 min
Bit rate : 9 131 kb/s
Width : 1 920 pixels
Height : 960 pixels
Display aspect ratio : 2.000
Frame rate mode : Constant
Frame rate : 23.976 (24000/1001) FPS
Color space : YUV
Chroma subsampling : 4:2:0
Bit depth : 8 bits
Scan type : Progressive
Bits/(Pixel*Frame) : 0.207
Stream size : 9.38 GiB (73%)
Title : Midsommar.2019.1080p.BluRay.x264.DTS-HD.MA.5.1-FGT
Writing library : x264 core 158 r2984 3759fcb
Encoding settings : cabac=1 / ref=4 / deblock=1:-3:-3 / analyse=0x3:0x133 / me=umh / subme=8 / psy=1 / psy_rd=1.00:0.00 / mixed_ref=1 / me_range=16 / chroma_me=1 / trellis=1 / 8x8dct=1 / cqm=0 / deadzone=21,11 / fast_pskip=0 / chroma_qp_offset=-2 / threads=30 / lookahead_threads=5 / sliced_threads=0 / nr=0 / decimate=1 / interlaced=0 / bluray_compat=0 / constrained_intra=0 / bframes=3 / b_pyramid=2 / b_adapt=1 / b_bias=0 / direct=3 / weightb=1 / open_gop=0 / weightp=2 / keyint=250 / keyint_min=23 / scenecut=40 / intra_refresh=0 / rc_lookahead=50 / rc=2pass / mbtree=1 / bitrate=9131 / ratetol=1.0 / qcomp=0.60 / qpmin=0 / qpmax=69 / qpstep=4 / cplxblur=20.0 / qblur=0.5 / vbv_maxrate=62500 / vbv_bufsize=78125 / nal_hrd=none / filler=0 / ip_ratio=1.40 / aq=1:1.00
Language : English
Default : Yes
Forced : No

Audio
ID : 2
Format : DTS XLL
Format/Info : Digital Theater Systems
Commercial name : DTS-HD Master Audio
Codec ID : A_DTS
Duration : 2 h 27 min
Bit rate mode : Variable
Bit rate : 3 331 kb/s
Channel(s) : 6 channels
Channel layout : C L R Ls Rs LFE
Sampling rate : 48.0 kHz
Frame rate : 93.750 FPS (512 SPF)
Bit depth : 24 bits
Compression mode : Lossless
Stream size : 3.42 GiB (27%)
Title : Midsommar.2019.1080p.BluRay.x264.DTS-HD.MA.5.1-FGT
Language : English
Default : Yes
Forced : No

Text #1
ID : 3
Format : UTF-8
Codec ID : S_TEXT/UTF8
Codec ID/Info : UTF-8 Plain Text
Duration : 2 h 11 min
Bit rate : 40 b/s
Count of elements : 1136
Stream size : 38.9 KiB (0%)
Title : English-SRT
Language : English
Default : Yes
Forced : No

Text #2
ID : 4
Format : PGS
Muxing mode : zlib
Codec ID : S_HDMV/PGS
Codec ID/Info : Picture based subtitle format used on BDs/HD-DVDs
Duration : 2 h 25 min
Bit rate : 27.5 kb/s
Count of elements : 2900
Stream size : 28.7 MiB (0%)
Title : English-PGS
Language : English
Default : No
Forced : No

Text #3
ID : 5
Format : PGS
Muxing mode : zlib
Codec ID : S_HDMV/PGS
Codec ID/Info : Picture based subtitle format used on BDs/HD-DVDs
Duration : 2 h 25 min
Bit rate : 20.9 kb/s
Count of elements : 2218
Stream size : 21.7 MiB (0%)
Title : English-PGS
Language : English
Default : No
Forced : No

Menu
00:00:00.000 : en:00:00:00.000
00:12:34.712 : en:00:12:34.712
00:18:06.877 : en:00:18:06.877
00:25:15.222 : en:00:25:15.222
00:33:35.722 : en:00:33:35.722
00:40:56.954 : en:00:40:56.954
00:49:23.669 : en:00:49:23.669
00:57:14.765 : en:00:57:14.765
01:05:52.740 : en:01:05:52.740
01:12:59.083 : en:01:12:59.083
01:20:37.040 : en:01:20:37.040
01:33:58.591 : en:01:33:58.591
01:41:34.171 : en:01:41:34.171
01:53:50.365 : en:01:53:50.365
02:02:22.960 : en:02:02:22.960
02:14:07.039 : en:02:14:07.039





1 個附件 售價 大小 下載 時間

Midsommar.2019.1080p.BluRay.x264.DTS-HD.MA.5.1-FGT.torrent 0 金幣 64.68K 9926 次 2月前

#1樓
發帖時間:2019-09-30 16:09:23   |   回復數:5
show55667878
武林高手
感謝分享高藍光版本
2月前 #2樓
liyouchai
隱世仙人♂
謝謝樓主分享資源
2月前 #3樓
911degrees
隱世仙人♂
非常感謝,謝謝分享
2月前 #4樓
逍遙行云
小有名氣
謝謝樓主的分享,非常感謝
2月前 #5樓
chechi008
武林盟主
感謝樓主分享...
1月前 #6樓
游客組