conanlcg
超級版主

[更 早] [歐美] [其他] [WEB-1080P] 左手持槍/左手神槍 The.Left.Handed.Gun.1958.1080p.WEBRip.x264-RARBG 1.95GB

-->

帖子完整標題:左手持槍/左手神槍 The.Left.Handed.Gun.1958.1080p.WEBRip.x264-RARBG 1.95GB




◎譯  名 左手持槍 / 左手神槍
◎片  名 The Left Handed Gun
◎年  代 1958
◎產  地 美國
◎類  別 傳記 / 西部
◎語  言 英語 / 西班牙語
◎上映日期 1958-09-26
◎IMDb評分 6.5/10 from 3558 users
◎IMDb鏈接 https://www.imdb.com/title/tt0051849
◎豆瓣評分 6.7/10 from 131 users
◎豆瓣鏈接 https://movie.douban.com/subject/1449831/
◎片  長 102 分鐘
◎導  演 阿瑟·佩恩 Arthur Penn
◎編  劇 萊斯利·史蒂文斯 Leslie Stevens / 戈爾·維達爾 Gore Vidal
◎主  演 保羅·紐曼 Paul Newman
      Lita Milan
      約翰·德納 John Dehner
      赫德·哈特菲爾德 Hurd Hatfield
      James Congdon
      詹姆斯·貝斯特 James Best
      Colin Keith-Johnston
      John Dierkes
      Robert Anderson
      Wally Brown
      Ainslie Pryor
      Martin Garralaga
      丹佛·派爾 Denver Pyle
      Paul Smith
      Nestor Paiva


◎標  簽 美國 | 西部 | 西部片 | 阿瑟·佩恩 | 保羅·紐曼 | 1950s | 1958 | Paul_Newman

◎簡  介

  本片講述來自紐約下層的少年“惡棍”William Bonney在西部闖蕩的故事。這也是第一次把這個被稱作“Billy the Kid”傳奇的古怪青年暴徒的故事搬上大銀幕。
Video
ID : 1
Format : AVC
Format/Info : Advanced Video Codec
Format profile : [email protected]
Format settings : CABAC / 4 Ref Frames
Format settings, CABAC : Yes
Format settings, Reference frames : 4 frames
Codec ID : avc1
Codec ID/Info : Advanced Video Coding
Duration : 1 h 42 min
Bit rate : 2 500 kb/s
Width : 1 912 pixels
Height : 1 080 pixels
Display aspect ratio : 16:9
Frame rate mode : Constant
Frame rate : 23.976 (23976/1000) FPS
Color space : YUV
Chroma subsampling : 4:2:0
Bit depth : 8 bits
Scan type : Progressive
Bits/(Pixel*Frame) : 0.050
Stream size : 1.79 GiB (92%)
Writing library : x264 core 152 r2851M ba24899
Encoding settings : cabac=1 / ref=4 / deblock=1:-1:-1 / analyse=0x3:0x113 / me=umh / subme=9 / psy=1 / psy_rd=1.00:0.15 / mixed_ref=1 / me_range=24 / chroma_me=1 / trellis=2 / 8x8dct=1 / cqm=0 / deadzone=21,11 / fast_pskip=1 / chroma_qp_offset=-3 / threads=16 / lookahead_threads=4 / sliced_threads=0 / nr=0 / decimate=1 / interlaced=0 / bluray_compat=0 / constrained_intra=0 / bframes=3 / b_pyramid=2 / b_adapt=2 / b_bias=0 / direct=3 / weightb=1 / open_gop=0 / weightp=2 / keyint=250 / keyint_min=25 / scenecut=40 / intra_refresh=0 / rc_lookahead=50 / rc=2pass / mbtree=1 / bitrate=2500 / ratetol=1.0 / qcomp=0.60 / qpmin=0 / qpmax=69 / qpstep=4 / cplxblur=20.0 / qblur=0.5 / vbv_maxrate=31250 / vbv_bufsize=31250 / nal_hrd=none / filler=0 / ip_ratio=1.40 / aq=3:1.00
Encoded date : UTC 2019-10-12 02:24:37
Tagged date : UTC 2019-10-12 02:24:37
Codec configuration box : avcC

Audio
ID : 2
Format : AAC LC
Format/Info : Advanced Audio Codec Low Complexity
Codec ID : mp4a-40-2
Duration : 1 h 42 min
Bit rate mode : Constant
Bit rate : 224 kb/s
Channel(s) : 2 channels
Channel layout : L R
Sampling rate : 48.0 kHz
Frame rate : 46.875 FPS (1024 SPF)
Compression mode : Lossy
Stream size : 164 MiB (8%)
Language : English
Default : Yes
Alternate group : 1
Encoded date : UTC 2019-10-12 02:24:37
Tagged date : UTC 2019-10-12 02:24:37





1 個附件 售價 大小 下載 時間

The.Left.Handed.Gun.1958.1080p.WEBRip.x264-RARBG.torrent 0 金幣 20.16K 301 次 2天前

#1樓
發帖時間:2019-10-12 12:55:33   |   回復數:2
linyihuangwei
武林盟主
謝謝分享
2天前 #2樓
911degrees
隱世仙人♂
非常感謝,謝謝分享
6小時前 #3樓
游客組