conanlcg
超級版主

[更 早] [歐美] [喜劇] [WEB-1080P] 假日少女情/別告訴老媽保姆嗝屁了 Dont.Tell.Mom.the.Babysitters.Dead.1991.1080p.WEBRip.x264-RARBG

-->

帖子完整標題:假日少女情/別告訴老媽保姆嗝屁了 Dont.Tell.Mom.the.Babysitters.Dead.1991.1080p.WEBRip.x264-RARBG 2.00GB




◎譯  名 假日少女情 / 別告訴老媽保姆嗝屁了 / 打工俏佳人
◎片  名 Don't Tell Mom the Babysitter's Dead
◎年  代 1991
◎產  地 美國
◎類  別 喜劇
◎語  言 英語
◎上映日期 1991-06-07
◎IMDb評分 6.2/10 from 25708 users
◎IMDb鏈接 https://www.imdb.com/title/tt0101757
◎豆瓣評分 0/10 from 0 users
◎豆瓣鏈接 https://movie.douban.com/subject/1298321/
◎片  長 102 分鐘
◎導  演 斯蒂芬 赫里克 (Stephen Herek)
◎編  劇 Neil Landau / Tara Ison
◎主  演 克里斯蒂娜·阿普爾蓋特
      喬安娜·科恩斯 Joanna Kerns
      約翰·格茲
      大衛·杜楚尼 David Duchovny


◎標  簽 美國 | 喜劇 | 1991 | 電影 | 愛情 | 青春 | HBO | 童年回憶

◎簡  介

  老媽度假,請個保姆照顧五個孩子,不料保姆第一天就因為年邁去世,五個孩子為了要享受自由生活,不愿此事讓老媽知道而突然返回,于是將保姆偷偷運至殯儀館門口,但五個孩子卻沒有了生活費,只好由十七歲的姐姐姊寫假履歷應徵到一家服裝公司工作,但是卻遇到同事設計她,男友吵架誤會她,公司經營發生危機,弟妹又把家里搞得一團亂,她該怎么辦呢?
Video
ID : 1
Format : AVC
Format/Info : Advanced Video Codec
Format profile : [email protected]
Format settings : CABAC / 4 Ref Frames
Format settings, CABAC : Yes
Format settings, Reference frames : 4 frames
Codec ID : avc1
Codec ID/Info : Advanced Video Coding
Duration : 1 h 45 min
Bit rate : 2 500 kb/s
Width : 1 920 pixels
Height : 1 080 pixels
Display aspect ratio : 16:9
Frame rate mode : Constant
Frame rate : 29.970 (29970/1000) FPS
Color space : YUV
Chroma subsampling : 4:2:0
Bit depth : 8 bits
Scan type : Progressive
Bits/(Pixel*Frame) : 0.040
Stream size : 1.83 GiB (91%)
Writing library : x264 core 152 r2851M ba24899
Encoding settings : cabac=1 / ref=4 / deblock=1:-1:-1 / analyse=0x3:0x113 / me=umh / subme=9 / psy=1 / psy_rd=1.00:0.15 / mixed_ref=1 / me_range=24 / chroma_me=1 / trellis=2 / 8x8dct=1 / cqm=0 / deadzone=21,11 / fast_pskip=1 / chroma_qp_offset=-3 / threads=16 / lookahead_threads=4 / sliced_threads=0 / nr=0 / decimate=1 / interlaced=0 / bluray_compat=0 / constrained_intra=0 / bframes=3 / b_pyramid=2 / b_adapt=2 / b_bias=0 / direct=3 / weightb=1 / open_gop=0 / weightp=2 / keyint=250 / keyint_min=25 / scenecut=40 / intra_refresh=0 / rc_lookahead=50 / rc=2pass / mbtree=1 / bitrate=2500 / ratetol=1.0 / qcomp=0.60 / qpmin=0 / qpmax=69 / qpstep=4 / cplxblur=20.0 / qblur=0.5 / vbv_maxrate=31250 / vbv_bufsize=31250 / nal_hrd=none / filler=0 / ip_ratio=1.40 / aq=3:1.00
Encoded date : UTC 2019-10-12 01:42:36
Tagged date : UTC 2019-10-12 01:42:36
Codec configuration box : avcC

Audio
ID : 2
Format : AAC LC
Format/Info : Advanced Audio Codec Low Complexity
Codec ID : mp4a-40-2
Duration : 1 h 45 min
Bit rate mode : Constant
Bit rate : 224 kb/s
Channel(s) : 2 channels
Channel layout : L R
Sampling rate : 48.0 kHz
Frame rate : 46.875 FPS (1024 SPF)
Compression mode : Lossy
Stream size : 168 MiB (8%)
Language : English
Default : Yes
Alternate group : 1
Encoded date : UTC 2019-10-12 01:42:36
Tagged date : UTC 2019-10-12 01:42:36





1 個附件 售價 大小 下載 時間

Dont.Tell.Mom.the.Babysitters.Dead.1991.1080p.WEBRip.x264-RARBG.torrent 0 金幣 20.69K 1498 次 2天前

#1樓
發帖時間:2019-10-12 13:01:30   |   回復數:1
911degrees
隱世仙人♂
非常感謝,謝謝分享
6小時前 #2樓
游客組