conanlcg
超級版主

[更 早] [歐美] [喜劇] [WEB-1080P] 好萊塢旅館 Hollywood.Hotel.1937.1080p.WEBRip.x264-RARBG 2.09GB

-->

帖子完整標題:好萊塢旅館 Hollywood.Hotel.1937.1080p.WEBRip.x264-RARBG 2.09GB




◎譯  名 好萊塢旅館
◎片  名 Hollywood Hotel
◎年  代 1937
◎產  地 美國
◎類  別 喜劇 / 愛情 / 歌舞
◎語  言 英語
◎上映日期 1938-01-15
◎IMDb評分 6.4/10 from 584 users
◎IMDb鏈接 https://www.imdb.com/title/tt0029010
◎豆瓣評分 0/10 from 0 users
◎豆瓣鏈接 https://movie.douban.com/subject/1300148/
◎片  長 109 分鐘
◎導  演 巴斯比·伯克利 Busby Berkeley
◎編  劇 Jerry Wald / Maurice Leo
◎主  演 迪克·鮑威爾 Dick Powell
      Rosemary Lane
      Lola Lane


◎標  簽 歌舞 | 美國電影

◎簡  介

  Ronny Bowers, a saxophonist in Benny Goodman's band has won a talent contest an got a ten week contract with a film studio. On his first evening he is supposed to go with the studio's star Mona Marshall to a movie premiere. But this lady doesn't want to go, so the bosses decide to use for Mona a double, Virginia. When Mona finds out next morning that happened, she insisted to fire her double and Ronny. Ronny finds work as singing waiter in a drive in, and is spotted by a director of the same studio, who wants him to lend his voice for an leading actor in a musical. After the first screening the actor is invited by Louella Parsons to sing in her program "Hollywood Hotel". He accepts, but he doesn't know that Ronny Bowers does not want to lend him his voice again. So everybody starts to play his little game to solve his own problems.
Video
ID : 1
Format : AVC
Format/Info : Advanced Video Codec
Format profile : [email protected]
Format settings : CABAC / 4 Ref Frames
Format settings, CABAC : Yes
Format settings, Reference frames : 4 frames
Codec ID : avc1
Codec ID/Info : Advanced Video Coding
Duration : 1 h 49 min
Bit rate : 2 500 kb/s
Width : 1 432 pixels
Height : 1 080 pixels
Display aspect ratio : 4:3
Frame rate mode : Constant
Frame rate : 23.976 (23976/1000) FPS
Color space : YUV
Chroma subsampling : 4:2:0
Bit depth : 8 bits
Scan type : Progressive
Bits/(Pixel*Frame) : 0.067
Stream size : 1.91 GiB (92%)
Writing library : x264 core 152 r2851M ba24899
Encoding settings : cabac=1 / ref=4 / deblock=1:-1:-1 / analyse=0x3:0x113 / me=umh / subme=9 / psy=1 / psy_rd=1.00:0.15 / mixed_ref=1 / me_range=24 / chroma_me=1 / trellis=2 / 8x8dct=1 / cqm=0 / deadzone=21,11 / fast_pskip=1 / chroma_qp_offset=-3 / threads=16 / lookahead_threads=4 / sliced_threads=0 / nr=0 / decimate=1 / interlaced=0 / bluray_compat=0 / constrained_intra=0 / bframes=3 / b_pyramid=2 / b_adapt=2 / b_bias=0 / direct=3 / weightb=1 / open_gop=0 / weightp=2 / keyint=250 / keyint_min=25 / scenecut=40 / intra_refresh=0 / rc_lookahead=50 / rc=2pass / mbtree=1 / bitrate=2500 / ratetol=1.0 / qcomp=0.60 / qpmin=0 / qpmax=69 / qpstep=4 / cplxblur=20.0 / qblur=0.5 / vbv_maxrate=31250 / vbv_bufsize=31250 / nal_hrd=none / filler=0 / ip_ratio=1.40 / aq=3:1.00
Encoded date : UTC 2019-10-12 03:35:56
Tagged date : UTC 2019-10-12 03:35:56
Codec configuration box : avcC

Audio
ID : 2
Format : AAC LC
Format/Info : Advanced Audio Codec Low Complexity
Codec ID : mp4a-40-2
Duration : 1 h 49 min
Duration_LastFrame : -11 ms
Bit rate mode : Constant
Bit rate : 224 kb/s
Channel(s) : 2 channels
Channel layout : L R
Sampling rate : 48.0 kHz
Frame rate : 46.875 FPS (1024 SPF)
Compression mode : Lossy
Stream size : 176 MiB (8%)
Language : English
Default : Yes
Alternate group : 1
Encoded date : UTC 2019-10-12 03:35:56
Tagged date : UTC 2019-10-12 03:35:56





1 個附件 售價 大小 下載 時間

Hollywood.Hotel.1937.1080p.WEBRip.x264-RARBG.torrent 0 金幣 21.54K 126 次 2天前

#1樓
發帖時間:2019-10-12 14:06:27   |   回復數:1
911degrees
隱世仙人♂
非常感謝,謝謝分享
6小時前 #2樓
游客組