conanlcg
超級版主

[2006] [歐美] [其他] [WEB-1080P] 不可為而為之 Done.the.Impossible.2006.1080p.WEBRip.x264-RARBG 1.52GB

-->

帖子完整標題:不可為而為之 Done.the.Impossible.2006.1080p.WEBRip.x264-RARBG 1.52GB




◎譯  名 不可為而為之
◎片  名 Done the Impossible-The Fans' Tale of Firefly and Serenity
◎年  代 2006
◎產  地 美國
◎類  別 紀錄片
◎語  言 英語
◎上映日期 2006-07-28(美國)
◎IMDb評分 6.8/10 from 694 users
◎IMDb鏈接 https://www.imdb.com/title/tt0838164
◎豆瓣評分 0/10 from 0 users
◎豆瓣鏈接 https://movie.douban.com/subject/24882603/
◎片  長 79分鐘
◎導  演 Tony Hadlock / Jason Heppler
◎主  演 莫瑞娜·巴卡琳 Morena Baccarin
      內森·菲利安 Nathan Fillion
      喬斯·韋登 Joss Whedon
      亞當·鮑德溫 Adam Baldwin


◎標  簽 紀錄片 | 美國 | firefly | 紀錄片-花絮 | 美劇 | 科幻 | 跟進中 | 電影

◎簡  介

  Firefly and Serenity have grown beyond the genius of Joss Whedon. The words Firefly and Browncoat have come to symbolize a sense of community, family, and believing that the impossible can be accomplished. These concepts are at the very heart of Firefly and of its fans. Adam Baldwin hosts the telling of this vivid Browncoat story that features interviews with Joss Whedon, creator of Firefly and Serenity, the cast, crew, and most important, the fans themselves. The story chronicles the rise, fall, and rebirth of the cult TV show "Firefly" as told from the perspective of the fans who helped save it. Fans of the TV show and movie share what inspired them to become passionate about Firefly, to help save Firefly, attend shindigs, participate in message boards, donate to charities, and become Serenity extras. They talk about the many ways that Firefly has affected their lives. The cast and crew also share humorous and insightful experiences.
Video
ID : 1
Format : AVC
Format/Info : Advanced Video Codec
Format profile : [email protected]
Format settings : CABAC / 4 Ref Frames
Format settings, CABAC : Yes
Format settings, Reference frames : 4 frames
Codec ID : avc1
Codec ID/Info : Advanced Video Coding
Duration : 1 h 19 min
Bit rate : 2 500 kb/s
Width : 1 920 pixels
Height : 1 080 pixels
Display aspect ratio : 16:9
Frame rate mode : Constant
Frame rate : 24.000 FPS
Color space : YUV
Chroma subsampling : 4:2:0
Bit depth : 8 bits
Scan type : Progressive
Bits/(Pixel*Frame) : 0.050
Stream size : 1.39 GiB (92%)
Writing library : x264 core 152 r2851M ba24899
Encoding settings : cabac=1 / ref=4 / deblock=1:-1:-1 / analyse=0x3:0x113 / me=umh / subme=9 / psy=1 / psy_rd=1.00:0.15 / mixed_ref=1 / me_range=24 / chroma_me=1 / trellis=2 / 8x8dct=1 / cqm=0 / deadzone=21,11 / fast_pskip=1 / chroma_qp_offset=-3 / threads=16 / lookahead_threads=4 / sliced_threads=0 / nr=0 / decimate=1 / interlaced=0 / bluray_compat=0 / constrained_intra=0 / bframes=3 / b_pyramid=2 / b_adapt=2 / b_bias=0 / direct=3 / weightb=1 / open_gop=0 / weightp=2 / keyint=250 / keyint_min=25 / scenecut=40 / intra_refresh=0 / rc_lookahead=50 / rc=2pass / mbtree=1 / bitrate=2500 / ratetol=1.0 / qcomp=0.60 / qpmin=0 / qpmax=69 / qpstep=4 / cplxblur=20.0 / qblur=0.5 / vbv_maxrate=31250 / vbv_bufsize=31250 / nal_hrd=none / filler=0 / ip_ratio=1.40 / aq=3:1.00
Encoded date : UTC 2019-10-12 04:17:15
Tagged date : UTC 2019-10-12 04:17:15
Codec configuration box : avcC

Audio
ID : 2
Format : AAC LC
Format/Info : Advanced Audio Codec Low Complexity
Codec ID : mp4a-40-2
Duration : 1 h 19 min
Duration_LastFrame : -11 ms
Bit rate mode : Constant
Bit rate : 224 kb/s
Channel(s) : 2 channels
Channel layout : L R
Sampling rate : 48.0 kHz
Frame rate : 46.875 FPS (1024 SPF)
Compression mode : Lossy
Stream size : 127 MiB (8%)
Language : English
Default : Yes
Alternate group : 1
Encoded date : UTC 2019-10-12 04:17:15
Tagged date : UTC 2019-10-12 04:17:15





1 個附件 售價 大小 下載 時間

Done.the.Impossible.2006.1080p.WEBRip.x264-RARBG.torrent 0 金幣 15.76K 154 次 2天前

#1樓
發帖時間:2019-10-12 14:39:46   |   回復數:1
911degrees
隱世仙人♂
非常感謝,謝謝分享
6小時前 #2樓
游客組