conanlcg
超級版主

[2011] [歐美] [喜劇] [WEB-1080P] 帕特里斯·奧尼爾:房中大象 Patrice.ONeal.An.Elephant.In.the.Room.2011.1080p.WEBRip.x264-RARBG

-->

帖子完整標題:帕特里斯·奧尼爾:房中大象 Patrice.ONeal.An.Elephant.In.the.Room.2011.1080p.WEBRip.x264-RARBG 1.47GB




◎譯  名 帕特里斯·奧尼爾:房中大象
◎片  名 Patrice O'Neal: Elephant in the Room
◎年  代 2011
◎產  地 美國
◎類  別 喜劇 / 脫口秀
◎語  言 英語
◎上映日期 2011-02-19
◎IMDb評分 8.2/10 from 847 users
◎IMDb鏈接 https://www.imdb.com/title/tt1625345
◎豆瓣評分 0/10 from 0 users
◎豆瓣鏈接 https://movie.douban.com/subject/24323316/
◎片  長 78分鐘
◎導  演 Beth McCarthy-Miller
◎編  劇 Patrice O'Neal
◎主  演 Patrice O'Neal


◎標  簽 脫口秀 | 美國 | 單口 | Stand-Up | Comedy | 紀錄片or現場演出 | PatriceO'Neal | 喜劇

◎簡  介

  暫無相關劇情介紹
Video
ID : 1
Format : AVC
Format/Info : Advanced Video Codec
Format profile : [email protected]
Format settings : CABAC / 4 Ref Frames
Format settings, CABAC : Yes
Format settings, Reference frames : 4 frames
Codec ID : avc1
Codec ID/Info : Advanced Video Coding
Duration : 1 h 17 min
Bit rate : 2 500 kb/s
Width : 1 920 pixels
Height : 1 080 pixels
Display aspect ratio : 16:9
Frame rate mode : Constant
Frame rate : 29.970 (29970/1000) FPS
Color space : YUV
Chroma subsampling : 4:2:0
Bit depth : 8 bits
Scan type : Progressive
Bits/(Pixel*Frame) : 0.040
Stream size : 1.35 GiB (91%)
Writing library : x264 core 152 r2851M ba24899
Encoding settings : cabac=1 / ref=4 / deblock=1:-1:-1 / analyse=0x3:0x113 / me=umh / subme=9 / psy=1 / psy_rd=1.00:0.15 / mixed_ref=1 / me_range=24 / chroma_me=1 / trellis=2 / 8x8dct=1 / cqm=0 / deadzone=21,11 / fast_pskip=1 / chroma_qp_offset=-3 / threads=16 / lookahead_threads=4 / sliced_threads=0 / nr=0 / decimate=1 / interlaced=0 / bluray_compat=0 / constrained_intra=0 / bframes=3 / b_pyramid=2 / b_adapt=2 / b_bias=0 / direct=3 / weightb=1 / open_gop=0 / weightp=2 / keyint=250 / keyint_min=25 / scenecut=40 / intra_refresh=0 / rc_lookahead=50 / rc=2pass / mbtree=1 / bitrate=2500 / ratetol=1.0 / qcomp=0.60 / qpmin=0 / qpmax=69 / qpstep=4 / cplxblur=20.0 / qblur=0.5 / vbv_maxrate=31250 / vbv_bufsize=31250 / nal_hrd=none / filler=0 / ip_ratio=1.40 / aq=3:1.00
Encoded date : UTC 2019-10-13 22:41:29
Tagged date : UTC 2019-10-13 22:41:29
Codec configuration box : avcC

Audio
ID : 2
Format : AAC LC
Format/Info : Advanced Audio Codec Low Complexity
Codec ID : mp4a-40-2
Duration : 1 h 17 min
Bit rate mode : Constant
Bit rate : 224 kb/s
Channel(s) : 2 channels
Channel layout : L R
Sampling rate : 48.0 kHz
Frame rate : 46.875 FPS (1024 SPF)
Compression mode : Lossy
Stream size : 124 MiB (8%)
Language : English
Default : Yes
Alternate group : 1
Encoded date : UTC 2019-10-13 22:41:29
Tagged date : UTC 2019-10-13 22:41:29





1 個附件 售價 大小 下載 時間

Patrice.ONeal.An.Elephant.In.the.Room.2011.1080p.WEBRip.x264-RARBG.torrent 0 金幣 15.40K 217 次 1月前

#1樓
發帖時間:2019-10-14 14:44:31   |   回復數:1
911degrees
隱世仙人♂
非常感謝,謝謝分享
1月前 #2樓
游客組