conanlcg
超級版主

[更 早] [其他] [劇情] [WEB-1080P] 意大利曼波 Mambo.Italiano.2003.1080p.WEBRip.x264-RARBG 1.70GB

-->

帖子完整標題:意大利曼波 Mambo.Italiano.2003.1080p.WEBRip.x264-RARBG 1.70GB




◎譯  名 意大利曼波
◎片  名 Mambo Italiano
◎年  代 2003
◎產  地 加拿大
◎類  別 劇情 / 喜劇
◎語  言 英語 / 意大利語 / 法語
◎上映日期 2003-09-06
◎IMDb評分 6.7/10 from 6117 users
◎IMDb鏈接 https://www.imdb.com/title/tt0330602
◎豆瓣評分 7.5/10 from 618 users
◎豆瓣鏈接 https://movie.douban.com/subject/1420001/
◎片  長 88 分鐘
◎導  演 émile Gaudreault
◎編  劇 émile Gaudreault / Steve Galluccio
◎主  演 Luke Kirby
      Ginette Reno
      Paul Sorvino
      Claudia Ferri
      Peter Miller
      Tara Nicodemo
      Mary Walsh
      Pierrette Robitaille


◎標  簽 加拿大 | 喜劇 | 同志 | 意大利 | gay | 同性 | 愛情 | 2003

◎簡  介

  一部用夸張,輕松,充滿歡笑,但同時也有些酸楚的畫筆勾勒出的一幅意大利移民家庭兩代人,兒子出柜,情感走向的巨幅畫作。
  在19世紀末期,大批大批的意大利人開始往美洲移民,尋找他們的淘金夢,但同時也根深蒂固的保留著亞平寧半島意大利民族的所有生活習慣和風俗,在每個美國和加拿大的大城市有著像唐人街一樣的自己的居民區,這就是故事的背景。Angelo一個生活在典型的意大利家庭里的深柜同志,在大膽的搬出來與父母分居后,偶然的和童年的知己Nino相遇。Nino終于說出了曾經沒有勇氣說的話,兩人迅即情投意合的同居一室。但是就在Angelo春風得意的向父母出柜后,自己的父母,姐姐,Nino的媽媽一起加入了這出感情鬧劇,混亂一片。最后心生愜意的Nino和舊時的女同學落荒而逃。
  Anglo重新審視自己感情取舍的同時,終于在郁郁不得志的劇本創作中獲得靈感,一炮打響。最終和家人取得共識,重新歡聚一堂的時候,也得到了愛情,事業的雙豐收。
Video
ID : 1
Format : AVC
Format/Info : Advanced Video Codec
Format profile : [email protected]
Format settings : CABAC / 4 Ref Frames
Format settings, CABAC : Yes
Format settings, Reference frames : 4 frames
Codec ID : avc1
Codec ID/Info : Advanced Video Coding
Duration : 1 h 29 min
Bit rate : 2 500 kb/s
Width : 1 920 pixels
Height : 1 080 pixels
Display aspect ratio : 16:9
Frame rate mode : Constant
Frame rate : 29.970 (29970/1000) FPS
Color space : YUV
Chroma subsampling : 4:2:0
Bit depth : 8 bits
Scan type : Progressive
Bits/(Pixel*Frame) : 0.040
Stream size : 1.56 GiB (91%)
Writing library : x264 core 152 r2851M ba24899
Encoding settings : cabac=1 / ref=4 / deblock=1:-1:-1 / analyse=0x3:0x113 / me=umh / subme=9 / psy=1 / psy_rd=1.00:0.15 / mixed_ref=1 / me_range=24 / chroma_me=1 / trellis=2 / 8x8dct=1 / cqm=0 / deadzone=21,11 / fast_pskip=1 / chroma_qp_offset=-3 / threads=16 / lookahead_threads=4 / sliced_threads=0 / nr=0 / decimate=1 / interlaced=0 / bluray_compat=0 / constrained_intra=0 / bframes=3 / b_pyramid=2 / b_adapt=2 / b_bias=0 / direct=3 / weightb=1 / open_gop=0 / weightp=2 / keyint=250 / keyint_min=25 / scenecut=40 / intra_refresh=0 / rc_lookahead=50 / rc=2pass / mbtree=1 / bitrate=2500 / ratetol=1.0 / qcomp=0.60 / qpmin=0 / qpmax=69 / qpstep=4 / cplxblur=20.0 / qblur=0.5 / vbv_maxrate=31250 / vbv_bufsize=31250 / nal_hrd=none / filler=0 / ip_ratio=1.40 / aq=3:1.00
Encoded date : UTC 2019-10-14 05:21:24
Tagged date : UTC 2019-10-14 05:21:24
Codec configuration box : avcC

Audio
ID : 2
Format : AAC LC
Format/Info : Advanced Audio Codec Low Complexity
Codec ID : mp4a-40-2
Duration : 1 h 29 min
Bit rate mode : Constant
Bit rate : 224 kb/s
Channel(s) : 2 channels
Channel layout : L R
Sampling rate : 48.0 kHz
Frame rate : 46.875 FPS (1024 SPF)
Compression mode : Lossy
Stream size : 143 MiB (8%)
Language : English
Default : Yes
Alternate group : 1
Encoded date : UTC 2019-10-14 05:21:24
Tagged date : UTC 2019-10-14 05:21:24





1 個附件 售價 大小 下載 時間

Mambo.Italiano.2003.1080p.WEBRip.x264-RARBG.torrent 0 金幣 17.56K 203 次 2月前

#1樓
發帖時間:2019-10-14 16:13:03   |   回復數:1
911degrees
隱世仙人♂
非常感謝,謝謝分享
1月前 #2樓
游客組