conanlcg
超級版主

[更 早] [歐美] [喜劇] [WEB-1080P] 1935年淘金女郎 Gold.Diggers.of.1935.1935.1080p.WEBRip.x264-RARBG 1.81GB

-->

帖子完整標題:1935年淘金女郎 Gold.Diggers.of.1935.1935.1080p.WEBRip.x264-RARBG 1.81GB




◎譯  名 1935年淘金女郎
◎片  名 Gold Diggers of 1935
◎年  代 1935
◎產  地 美國
◎類  別 喜劇 / 歌舞
◎語  言 英語
◎上映日期 1935-03-15
◎IMDb評分 6.9/10 from 2290 users
◎IMDb鏈接 https://www.imdb.com/title/tt0026421
◎豆瓣評分 7.5/10 from 87 users
◎豆瓣鏈接 https://movie.douban.com/subject/1950788/
◎片  長 98 分鐘
◎導  演 巴斯比·伯克利 Busby Berkeley
◎編  劇 Peter Milne / Manuel Seff
◎主  演 迪克·鮑威爾 Dick Powell
      格勞瑞亞·斯圖爾特 Gloria Stuart
      阿道夫·門吉歐 Adolphe Menjou


◎標  簽 美國 | 歌舞 | 喜劇 | 1930s | Busby_Berkeley | 歌舞片 | 美國電影 | 1935

◎簡  介

  暫無相關劇情介紹

◎獲獎情況

  第8屆奧斯卡金像獎(1936)
  最佳原創歌曲 Harry Warren / Al Dubin
  最佳舞蹈指導(提名) 巴斯比·伯克利
Video
ID : 1
Format : AVC
Format/Info : Advanced Video Codec
Format profile : [email protected]
Format settings : CABAC / 4 Ref Frames
Format settings, CABAC : Yes
Format settings, Reference frames : 4 frames
Codec ID : avc1
Codec ID/Info : Advanced Video Coding
Duration : 1 h 34 min
Bit rate : 2 500 kb/s
Width : 1 472 pixels
Height : 1 080 pixels
Display aspect ratio : 4:3
Frame rate mode : Constant
Frame rate : 23.976 (23976/1000) FPS
Color space : YUV
Chroma subsampling : 4:2:0
Bit depth : 8 bits
Scan type : Progressive
Bits/(Pixel*Frame) : 0.066
Stream size : 1.65 GiB (92%)
Writing library : x264 core 152 r2851M ba24899
Encoding settings : cabac=1 / ref=4 / deblock=1:-1:-1 / analyse=0x3:0x113 / me=umh / subme=9 / psy=1 / psy_rd=1.00:0.15 / mixed_ref=1 / me_range=24 / chroma_me=1 / trellis=2 / 8x8dct=1 / cqm=0 / deadzone=21,11 / fast_pskip=1 / chroma_qp_offset=-3 / threads=16 / lookahead_threads=4 / sliced_threads=0 / nr=0 / decimate=1 / interlaced=0 / bluray_compat=0 / constrained_intra=0 / bframes=3 / b_pyramid=2 / b_adapt=2 / b_bias=0 / direct=3 / weightb=1 / open_gop=0 / weightp=2 / keyint=250 / keyint_min=25 / scenecut=40 / intra_refresh=0 / rc_lookahead=50 / rc=2pass / mbtree=1 / bitrate=2500 / ratetol=1.0 / qcomp=0.60 / qpmin=0 / qpmax=69 / qpstep=4 / cplxblur=20.0 / qblur=0.5 / vbv_maxrate=31250 / vbv_bufsize=31250 / nal_hrd=none / filler=0 / ip_ratio=1.40 / aq=3:1.00
Encoded date : UTC 2019-10-14 04:10:38
Tagged date : UTC 2019-10-14 04:10:38
Codec configuration box : avcC

Audio
ID : 2
Format : AAC LC
Format/Info : Advanced Audio Codec Low Complexity
Codec ID : mp4a-40-2
Duration : 1 h 34 min
Bit rate mode : Constant
Bit rate : 224 kb/s
Channel(s) : 1 channel
Channel layout : C
Sampling rate : 48.0 kHz
Frame rate : 46.875 FPS (1024 SPF)
Compression mode : Lossy
Stream size : 152 MiB (8%)
Language : English
Default : Yes
Alternate group : 1
Encoded date : UTC 2019-10-14 04:10:38
Tagged date : UTC 2019-10-14 04:10:38





1 個附件 售價 大小 下載 時間

Gold.Diggers.of.1935.1935.1080p.WEBRip.x264-RARBG.torrent 0 金幣 18.72K 294 次 1月前

#1樓
發帖時間:2019-10-14 16:16:42   |   回復數:2
jokingcheung
一代宗師
謝謝分享
1月前 #2樓
911degrees
隱世仙人♂
非常感謝,謝謝分享
1月前 #3樓
游客組