conanlcg
超級版主

[2018] [其他] [劇情] [WEB-1080P] 女服務員 The.Chambermaid.2018.SPANISH.1080p.AMZN.WEBRip.DDP5.1.x264-NTG 3.21GB

-->

帖子完整標題:女服務員 The.Chambermaid.2018.SPANISH.1080p.AMZN.WEBRip.DDP5.1.x264-NTG 3.21GB




◎譯  名 女服務員 / The Chambermaid / 厭世女傭日記(臺) / 酒店女傭日志(港)
◎片  名 La Camarista
◎年  代 2018
◎產  地 墨西哥
◎類  別 劇情
◎語  言 西班牙語 / 法語
◎上映日期 2018-09(圣塞巴斯蒂安電影節)
◎IMDb評分 7.4/10 from 577 users
◎IMDb鏈接 https://www.imdb.com/title/tt8331988
◎豆瓣評分 7.3/10 from 84 users
◎豆瓣鏈接 https://movie.douban.com/subject/30275464/
◎片  長 102分鐘
◎導  演 莉拉·阿維萊斯 Lila Avilés
◎編  劇 莉拉·阿維萊斯 Lila Avilés / Juan Márquez
◎主  演 加布里埃拉·卡托 Gabriela Cartol
      Agustina Quinci
      Teresa Sánchez


◎標  簽 墨西哥 | 2018 | 墨西哥電影 | 社會 | 拉丁美洲 | 女性 | 2010s | 西班牙

◎簡  介

  墨西哥城高檔酒店內,年輕女傭自有心事。日復一日的漫長工作,總有打掃不盡的房間。她長途跋涉上班,無法照料年幼兒子,卻要幫客人看顧小孩。參加進修班,望能晉升到尊貴樓層。偶然拾獲紅裙,盼失物無人認領可據為己有。抹窗工人隔窗傳情,她其實更需要找到女性自我的聲音。來自劇場的阿維萊絲首拍長片即備受注目,以紀實眼光看打工女的生活與生存,發掘角色沉靜外表下的豐富情感,暗暗接通戴丹兄弟和艾方素卡朗的《羅馬》(2018)。

◎獲獎情況

  第66屆圣塞巴斯蒂安國際電影節(2018)
  最佳新導演(提名) 莉拉·阿維萊斯

  第23屆釜山國際電影節(2018)
  未來景象獎(提名) 莉拉·阿維萊斯

  第21屆臺北電影節(2019)
  國際新導演競賽 最佳影片(提名) 莉拉·阿維萊斯
Video
ID : 1
Format : AVC
Format/Info : Advanced Video Codec
Format profile : [email protected]
Format settings : CABAC / 4 Ref Frames
Format settings, CABAC : Yes
Format settings, Reference frames : 4 frames
Codec ID : V_MPEG4/ISO/AVC
Duration : 1 h 41 min
Bit rate mode : Constant
Bit rate : 3 862 kb/s
Nominal bit rate : 10 000 kb/s
Width : 1 920 pixels
Height : 872 pixels
Display aspect ratio : 2.2:1
Original display aspect ratio : 2.2:1
Frame rate mode : Constant
Frame rate : 23.976 (24000/1001) FPS
Color space : YUV
Chroma subsampling : 4:2:0
Bit depth : 8 bits
Scan type : Progressive
Bits/(Pixel*Frame) : 0.096
Stream size : 2.75 GiB (86%)
Default : Yes
Forced : No
Color range : Limited
Color primaries : BT.709
Transfer characteristics : BT.709
Matrix coefficients : BT.709

Audio
ID : 2
Format : E-AC-3
Format/Info : Enhanced AC-3
Commercial name : Dolby Digital Plus
Codec ID : A_EAC3
Duration : 1 h 41 min
Bit rate mode : Constant
Bit rate : 640 kb/s
Channel(s) : 6 channels
Channel layout : L R C LFE Ls Rs
Sampling rate : 48.0 kHz
Frame rate : 31.250 FPS (1536 SPF)
Compression mode : Lossy
Stream size : 467 MiB (14%)
Language : Spanish
Service kind : Complete Main
Default : Yes
Forced : No

Text #1
ID : 3
Format : UTF-8
Codec ID : S_TEXT/UTF8
Codec ID/Info : UTF-8 Plain Text
Duration : 1 h 32 min
Bit rate : 28 b/s
Count of elements : 618
Stream size : 19.5 KiB (0%)
Language : English
Default : No
Forced : No

Text #2
ID : 4
Format : UTF-8
Codec ID : S_TEXT/UTF8
Codec ID/Info : UTF-8 Plain Text
Duration : 1 h 32 min
Bit rate : 28 b/s
Count of elements : 619
Stream size : 19.5 KiB (0%)
Title : SDH
Language : English
Default : No
Forced : No





1 個附件 售價 大小 下載 時間

The.Chambermaid.2018.SPANISH.1080p.AMZN.WEBRip.DDP5.1.x264-NTG.torrent 0 金幣 32.61K 504 次 2月前

#1樓
發帖時間:2019-10-14 16:18:41   |   回復數:2
jokingcheung
一代宗師
謝謝分享
1月前 #2樓
911degrees
隱世仙人♂
非常感謝,謝謝分享
1月前 #3樓
游客組