conanlcg
超級版主

[2013] [歐美] [驚悚] [WEB-1080P] 擋不住的誘惑/生物課課堂101 Biology.101.2013.1080p.WEBRip.x264-RARBG 1.44GB

-->

帖子完整標題:擋不住的誘惑/生物課課堂101 Biology.101.2013.1080p.WEBRip.x264-RARBG 1.44GB




◎譯  名 擋不住的誘惑 / 生物課課堂101
◎片  名 Biology 101
◎年  代 2013
◎產  地 美國
◎類  別 驚悚
◎語  言 英語
◎上映日期 2013-09-07(美國)
◎IMDb評分 3.4/10 from 243 users
◎IMDb鏈接 https://www.imdb.com/title/tt2120025
◎豆瓣評分 0/10 from 0 users
◎豆瓣鏈接 https://movie.douban.com/subject/26341903/
◎導  演 Christopher R. Smith
◎編  劇 Liz Bradley / Christopher R. Smith
◎主  演 David Christian Welborn
      Noelle DuBois
      Deborah O'Brien
      Emily Bicks


◎標  簽 劇情 | 青少年色情 | e

◎簡  介

  大學教授比爾,就像一般邁入中年的男人,有個幸福的家庭、過著平凡的日子,但他有個不為人知的小秘密,在夜晚比爾喜歡流連於「丹妮甜心」成人直播網站,白天上課還不時幻想著丹妮的美艷身影。直到某天,班上轉來一名叫瑪麗莎的新同學,比爾驚訝地發現瑪麗莎竟然就是丹妮本人!當平日的幻想真實地出現在眼前,比爾就快按耐不住他壓抑已久的慾望
Video
ID : 1
Format : AVC
Format/Info : Advanced Video Codec
Format profile : [email protected]
Format settings : CABAC / 4 Ref Frames
Format settings, CABAC : Yes
Format settings, Reference frames : 4 frames
Codec ID : avc1
Codec ID/Info : Advanced Video Coding
Duration : 1 h 15 min
Bit rate : 2 500 kb/s
Width : 1 920 pixels
Height : 1 080 pixels
Display aspect ratio : 16:9
Frame rate mode : Constant
Frame rate : 23.976 (23976/1000) FPS
Color space : YUV
Chroma subsampling : 4:2:0
Bit depth : 8 bits
Scan type : Progressive
Bits/(Pixel*Frame) : 0.050
Stream size : 1.32 GiB (92%)
Writing library : x264 core 152 r2851M ba24899
Encoding settings : cabac=1 / ref=4 / deblock=1:-1:-1 / analyse=0x3:0x113 / me=umh / subme=9 / psy=1 / psy_rd=1.00:0.15 / mixed_ref=1 / me_range=24 / chroma_me=1 / trellis=2 / 8x8dct=1 / cqm=0 / deadzone=21,11 / fast_pskip=1 / chroma_qp_offset=-3 / threads=16 / lookahead_threads=4 / sliced_threads=0 / nr=0 / decimate=1 / interlaced=0 / bluray_compat=0 / constrained_intra=0 / bframes=3 / b_pyramid=2 / b_adapt=2 / b_bias=0 / direct=3 / weightb=1 / open_gop=0 / weightp=2 / keyint=250 / keyint_min=25 / scenecut=40 / intra_refresh=0 / rc_lookahead=50 / rc=2pass / mbtree=1 / bitrate=2500 / ratetol=1.0 / qcomp=0.60 / qpmin=0 / qpmax=69 / qpstep=4 / cplxblur=20.0 / qblur=0.5 / vbv_maxrate=31250 / vbv_bufsize=31250 / nal_hrd=none / filler=0 / ip_ratio=1.40 / aq=3:1.00
Encoded date : UTC 2019-10-14 02:06:11
Tagged date : UTC 2019-10-14 02:06:11
Codec configuration box : avcC

Audio
ID : 2
Format : AAC LC
Format/Info : Advanced Audio Codec Low Complexity
Codec ID : mp4a-40-2
Duration : 1 h 15 min
Bit rate mode : Constant
Bit rate : 224 kb/s
Channel(s) : 6 channels
Channel layout : C L R Ls Rs LFE
Sampling rate : 48.0 kHz
Frame rate : 46.875 FPS (1024 SPF)
Compression mode : Lossy
Stream size : 121 MiB (8%)
Language : English
Default : Yes
Alternate group : 1
Encoded date : UTC 2019-10-14 02:06:11
Tagged date : UTC 2019-10-14 02:06:11





1 個附件 售價 大小 下載 時間

Biology.101.2013.1080p.WEBRip.x264-RARBG.torrent 0 金幣 14.99K 2338 次 2月前

#1樓
發帖時間:2019-10-14 16:26:41   |   回復數:2
911degrees
隱世仙人♂
非常感謝,謝謝分享
1月前 #2樓
tokyoal
武林盟主
非常感謝,謝謝分享
1月前 #3樓
游客組