conanlcg
超級版主

[更 早] [歐美] [劇情] [BD-4K] 疤面煞星/疤臉人 Scarface.1983.2160p.BluRay.x264.8bit.SDR.DTS-X.7.1-SWTYBLZ 83.81GB

-->

帖子完整標題:疤面煞星/疤臉人 Scarface.1983.2160p.BluRay.x264.8bit.SDR.DTS-X.7.1-SWTYBLZ 83.81GB




◎譯  名 疤面煞星 / 疤臉人 / 疤面人
◎片  名 Scarface
◎年  代 1983
◎產  地 美國
◎類  別 劇情 / 驚悚 / 犯罪
◎語  言 英語 / 西班牙語
◎上映日期 1983-12-01
◎IMDb評分 8.3/10 from 678058 users
◎IMDb鏈接 https://www.imdb.com/title/tt0086250
◎豆瓣評分 8.3/10 from 44839 users
◎豆瓣鏈接 https://movie.douban.com/subject/1292065/
◎片  長 170 分鐘
◎導  演 布萊恩·德·帕爾瑪 Brian De Palma
◎編  劇 奧利佛·斯通 Oliver Stone
◎主  演 阿爾·帕西諾 Al Pacino
      斯蒂文·鮑爾 Steven Bauer
      米歇爾·菲佛 Michelle Pfeiffer
      瑪麗·伊麗莎白·馬斯特蘭托尼奧 Mary Elizabeth Mastrantonio
      羅伯特·勞吉亞 Robert Loggia


◎標  簽 黑幫 | 阿爾·帕西諾 | 犯罪 | 美國 | AlPacino | 暴力 | 經典 | 美國電影

◎簡  介

  古巴難民青年托尼(阿爾?帕西諾 Al Pacino 飾)逃難來到了美國的邁阿密,成了一個典型的天不怕、地不怕的美國街頭小混混。托尼在當地的一個毒梟手下干活,因其心狠手辣、膽大心細,十分出色地幫老大完成了幾件任務而迅速受到賞識,成為毒梟的第一得力助手。
  然而托尼并沒有就此滿足,他先是從委內瑞拉的毒梟那里接下了大單子,接著將自己的眼中釘一顆顆除去,勢力不斷擴大。當他的老大感受到威脅時已經太晚了,托尼將老大干掉然后一統了邁阿密毒品市場的天下。
  托尼得勢后他的性格開始變得疑神疑鬼,對周圍的人甚至至親的家人、好兄弟都充滿懷疑。疑心使他逐漸走上了不歸路!
Video
ID : 1
Format : AVC
Format/Info : Advanced Video Codec
Format profile : [email protected]
Format settings : CABAC / 5 Ref Frames
Format settings, CABAC : Yes
Format settings, Reference frames : 5 frames
Codec ID : V_MPEG4/ISO/AVC
Duration : 2 h 49 min
Bit rate : 63.8 Mb/s
Width : 3 840 pixels
Height : 1 634 pixels
Display aspect ratio : 2.35:1
Frame rate mode : Constant
Frame rate : 23.976 (24000/1001) FPS
Color space : YUV
Chroma subsampling : 4:2:0
Bit depth : 8 bits
Scan type : Progressive
Bits/(Pixel*Frame) : 0.424
Stream size : 75.7 GiB (91%)
Title : Scarface.1983.2160p.BluRay.x264.8bit.SDR.DTS-X.7.1-SWTYBLZ
Writing library : x264 core 157 r2935 545de2f
Encoding settings : cabac=1 / ref=5 / deblock=1:-1:-1 / analyse=0x3:0x113 / me=umh / subme=10 / psy=1 / psy_rd=1.00:0.15 / mixed_ref=1 / me_range=48 / chroma_me=1 / trellis=2 / 8x8dct=1 / cqm=0 / deadzone=21,11 / fast_pskip=1 / chroma_qp_offset=-3 / threads=48 / lookahead_threads=4 / sliced_threads=0 / nr=0 / decimate=0 / interlaced=0 / bluray_compat=0 / constrained_intra=0 / bframes=3 / b_pyramid=2 / b_adapt=2 / b_bias=0 / direct=3 / weightb=1 / open_gop=0 / weightp=2 / keyint=250 / keyint_min=23 / scenecut=40 / intra_refresh=0 / rc_lookahead=50 / rc=crf / mbtree=1 / crf=22.0 / qcomp=0.60 / qpmin=0 / qpmax=69 / qpstep=4 / ip_ratio=1.40 / aq=1:1.00
Language : English
Default : Yes
Forced : No

Audio #1
ID : 2
Format : DTS XLL X
Format/Info : Digital Theater Systems
Commercial name : DTS-HD Master Audio
Codec ID : A_DTS
Duration : 2 h 49 min
Bit rate mode : Variable
Bit rate : 5 793 kb/s
Channel(s) : 8 channels
Channel(s)_Original : Object Based
Channel layout : Object Based
Sampling rate : 48.0 kHz
Frame rate : 93.750 FPS (512 SPF)
Bit depth : 24 bits
Stream size : 6.87 GiB (8%)
Title : Scarface.1983.2160p.BluRay.x264.8bit.SDR.DTS-X.7.1-SWTYBLZ
Language : English
Default : Yes
Forced : No

Audio #2
ID : 3
Format : AC-3
Format/Info : Audio Coding 3
Commercial name : Dolby Digital
Codec ID : A_AC3
Duration : 2 h 49 min
Bit rate mode : Constant
Bit rate : 640 kb/s
Channel(s) : 6 channels
Channel layout : L R C LFE Ls Rs
Sampling rate : 48.0 kHz
Frame rate : 31.250 FPS (1536 SPF)
Bit depth : 16 bits
Compression mode : Lossy
Stream size : 778 MiB (1%)
Title : Scarface.1983.2160p.BluRay.x264.8bit.SDR.DTS-X.7.1-SWTYBLZ
Language : English
Service kind : Complete Main
Default : No
Forced : No

Text #1
ID : 4
Format : UTF-8
Codec ID : S_TEXT/UTF8
Codec ID/Info : UTF-8 Plain Text
Duration : 2 h 39 min
Bit rate : 57 b/s
Count of elements : 2268
Stream size : 67.5 KiB (0%)
Title : English-SRT
Language : English
Default : Yes
Forced : No

Text #2
ID : 5
Format : UTF-8
Codec ID : S_TEXT/UTF8
Codec ID/Info : UTF-8 Plain Text
Duration : 2 h 42 min
Bit rate : 59 b/s
Count of elements : 2406
Stream size : 70.7 KiB (0%)
Title : English-SDHSRT
Language : English
Default : No
Forced : No

Text #3
ID : 6
Format : PGS
Muxing mode : zlib
Codec ID : S_HDMV/PGS
Codec ID/Info : Picture based subtitle format used on BDs/HD-DVDs
Duration : 2 h 42 min
Bit rate : 39.1 kb/s
Count of elements : 4812
Stream size : 45.4 MiB (0%)
Title : English-PGS
Language : English
Default : No
Forced : No

Text #4
ID : 7
Format : PGS
Muxing mode : zlib
Codec ID : S_HDMV/PGS
Codec ID/Info : Picture based subtitle format used on BDs/HD-DVDs
Duration : 2 h 43 min
Bit rate : 25.2 kb/s
Count of elements : 3682
Stream size : 29.6 MiB (0%)
Title : Spanish-PGS
Language : Spanish
Default : No
Forced : No

Text #5
ID : 8
Format : PGS
Muxing mode : zlib
Codec ID : S_HDMV/PGS
Codec ID/Info : Picture based subtitle format used on BDs/HD-DVDs
Duration : 2 h 43 min
Bit rate : 28.2 kb/s
Count of elements : 3636
Stream size : 33.1 MiB (0%)
Title : French-PGS
Language : French
Default : No
Forced : No

Menu
00:00:00.000 : en:Chapter 01
00:08:11.574 : en:Chapter 02
00:10:55.237 : en:Chapter 03
00:13:40.194 : en:Chapter 04
00:15:43.025 : en:Chapter 05
00:20:57.923 : en:Chapter 06
00:29:51.289 : en:Chapter 07
00:33:09.362 : en:Chapter 08
00:34:42.538 : en:Chapter 09
00:43:13.090 : en:Chapter 10
00:46:46.053 : en:Chapter 11
00:50:45.042 : en:Chapter 12
00:59:02.705 : en:Chapter 13
01:04:15.643 : en:Chapter 14
01:08:20.471 : en:Chapter 15
01:12:57.206 : en:Chapter 16
01:17:17.841 : en:Chapter 17
01:23:33.008 : en:Chapter 18
01:28:48.031 : en:Chapter 19
01:33:44.243 : en:Chapter 20
01:43:31.413 : en:Chapter 21
01:47:01.706 : en:Chapter 22
01:51:48.410 : en:Chapter 23
01:57:19.991 : en:Chapter 24
02:02:43.105 : en:Chapter 25
02:07:08.203 : en:Chapter 26
02:13:58.405 : en:Chapter 27
02:16:04.447 : en:Chapter 28
02:21:45.705 : en:Chapter 29
02:24:22.779 : en:Chapter 30
02:30:37.778 : en:Chapter 31
02:35:14.888 : en:Chapter 32
02:37:33.068 : en:Chapter 33
02:40:04.177 : en:Chapter 34
02:43:20.999 : en:Chapter 35





1 個附件 售價 大小 下載 時間

Scarface.1983.2160p.BluRay.x264.8bit.SDR.DTS-X.7.1-SWTYBLZ.torrent 0 金幣 210.14K 336 次 1月前

#1樓
發帖時間:2019-10-14 18:05:33   |   回復數:2
jokingcheung
一代宗師
謝謝分享
1月前 #2樓
911degrees
隱世仙人♂
非常感謝,謝謝分享
1月前 #3樓
游客組