conanlcg
超級版主

[2007] [其他] [驚悚] [WEB-1080P] 捕獸器 Steel.Trap.2007.1080p.WEBRip.x264-RARBG 1.77GB

-->

帖子完整標題:捕獸器 Steel.Trap.2007.1080p.WEBRip.x264-RARBG 1.77GB




◎譯  名 捕獸器 / Butchered - Keiner kann entkommen / 陷阱
◎片  名 Steel Trap
◎年  代 2007
◎產  地 德國
◎類  別 驚悚 / 恐怖
◎語  言 英語
◎上映日期 2007-11-07
◎IMDb評分 4.3/10 from 1514 users
◎IMDb鏈接 https://www.imdb.com/title/tt0973790
◎豆瓣評分 0/10 from 0 users
◎豆瓣鏈接 https://movie.douban.com/subject/2983442/
◎片  長 89分鐘
◎導  演 Luis Cámara

◎標  簽 我看過的電影 | 我看過的恐怖電影 | 我看過的英語電影 | 英語的標簽 | 英語標簽 | 電影迷 | 驚悚 | 恐怖電影

◎簡  介

  新年前夕,威德(Mark Wilson 馬克?威爾森 飾)、羅伯特(Pascal Langdale 帕斯科?蘭格戴爾 飾)、妮可(Julia Ballard 朱麗婭?貝拉德 飾)等五個互不相識的人相繼收到神秘的邀請函,邀請他們參加一個派對,派對地點在一座大廈27層頂樓上。
  然而令他們奇怪的是,派對房間被裝飾成兒童的派對,每個人都有對應的座位:豬、失敗者、雙面人、沒心腸和情人男孩。是有人惡作劇?還是某種主體派對?正當他們困惑不解之時,危及撲面襲來,一場派對變成了殘酷無情的狩獵游戲……
Video
ID : 1
Format : AVC
Format/Info : Advanced Video Codec
Format profile : [email protected]
Format settings : CABAC / 4 Ref Frames
Format settings, CABAC : Yes
Format settings, Reference frames : 4 frames
Codec ID : avc1
Codec ID/Info : Advanced Video Coding
Duration : 1 h 32 min
Bit rate : 2 500 kb/s
Width : 1 920 pixels
Height : 1 076 pixels
Display aspect ratio : 16:9
Frame rate mode : Constant
Frame rate : 23.976 (23976/1000) FPS
Color space : YUV
Chroma subsampling : 4:2:0
Bit depth : 8 bits
Scan type : Progressive
Bits/(Pixel*Frame) : 0.050
Stream size : 1.62 GiB (92%)
Writing library : x264 core 152 r2851M ba24899
Encoding settings : cabac=1 / ref=4 / deblock=1:-1:-1 / analyse=0x3:0x113 / me=umh / subme=9 / psy=1 / psy_rd=1.00:0.15 / mixed_ref=1 / me_range=24 / chroma_me=1 / trellis=2 / 8x8dct=1 / cqm=0 / deadzone=21,11 / fast_pskip=1 / chroma_qp_offset=-3 / threads=16 / lookahead_threads=4 / sliced_threads=0 / nr=0 / decimate=1 / interlaced=0 / bluray_compat=0 / constrained_intra=0 / bframes=3 / b_pyramid=2 / b_adapt=2 / b_bias=0 / direct=3 / weightb=1 / open_gop=0 / weightp=2 / keyint=250 / keyint_min=25 / scenecut=40 / intra_refresh=0 / rc_lookahead=50 / rc=2pass / mbtree=1 / bitrate=2500 / ratetol=1.0 / qcomp=0.60 / qpmin=0 / qpmax=69 / qpstep=4 / cplxblur=20.0 / qblur=0.5 / vbv_maxrate=31250 / vbv_bufsize=31250 / nal_hrd=none / filler=0 / ip_ratio=1.40 / aq=3:1.00
Encoded date : UTC 2019-10-14 06:33:21
Tagged date : UTC 2019-10-14 06:33:21
Codec configuration box : avcC

Audio
ID : 2
Format : AAC LC
Format/Info : Advanced Audio Codec Low Complexity
Codec ID : mp4a-40-2
Duration : 1 h 32 min
Duration_LastFrame : -11 ms
Bit rate mode : Constant
Bit rate : 224 kb/s
Channel(s) : 2 channels
Channel layout : L R
Sampling rate : 48.0 kHz
Frame rate : 46.875 FPS (1024 SPF)
Compression mode : Lossy
Stream size : 149 MiB (8%)
Language : English
Default : Yes
Alternate group : 1
Encoded date : UTC 2019-10-14 06:33:21
Tagged date : UTC 2019-10-14 06:33:21





1 個附件 售價 大小 下載 時間

Steel.Trap.2007.1080p.WEBRip.x264-RARBG.torrent 0 金幣 18.36K 329 次 1月前

#1樓
發帖時間:2019-10-14 18:27:19   |   回復數:2
BoatJ
小有名氣
謝謝分享,下載看看。
1月前 #2樓
911degrees
隱世仙人♂
非常感謝,謝謝分享
1月前 #3樓
游客組