conanlcg
超級版主

[更 早] [歐美] [劇情] [BD-Remux] 疤面煞星/疤臉人 Scarface.1983.REMASTERED.1080p.BluRay.REMUX.AVC.DTS-HD.MA.7.1-FGT 31.63

-->

帖子完整標題:疤面煞星/疤臉人 Scarface.1983.REMASTERED.1080p.BluRay.REMUX.AVC.DTS-HD.MA.7.1-FGT 31.63GB




◎譯  名 疤面煞星 / 疤臉人 / 疤面人
◎片  名 Scarface
◎年  代 1983
◎產  地 美國
◎類  別 劇情 / 驚悚 / 犯罪
◎語  言 英語 / 西班牙語
◎上映日期 1983-12-01
◎IMDb評分 8.3/10 from 678058 users
◎IMDb鏈接 https://www.imdb.com/title/tt0086250
◎豆瓣評分 8.3/10 from 44839 users
◎豆瓣鏈接 https://movie.douban.com/subject/1292065/
◎片  長 170 分鐘
◎導  演 布萊恩·德·帕爾瑪 Brian De Palma
◎編  劇 奧利佛·斯通 Oliver Stone
◎主  演 阿爾·帕西諾 Al Pacino
      斯蒂文·鮑爾 Steven Bauer
      米歇爾·菲佛 Michelle Pfeiffer
      瑪麗·伊麗莎白·馬斯特蘭托尼奧 Mary Elizabeth Mastrantonio
      羅伯特·勞吉亞 Robert Loggia


◎標  簽 黑幫 | 阿爾·帕西諾 | 犯罪 | 美國 | AlPacino | 暴力 | 經典 | 美國電影

◎簡  介

  古巴難民青年托尼(阿爾?帕西諾 Al Pacino 飾)逃難來到了美國的邁阿密,成了一個典型的天不怕、地不怕的美國街頭小混混。托尼在當地的一個毒梟手下干活,因其心狠手辣、膽大心細,十分出色地幫老大完成了幾件任務而迅速受到賞識,成為毒梟的第一得力助手。
  然而托尼并沒有就此滿足,他先是從委內瑞拉的毒梟那里接下了大單子,接著將自己的眼中釘一顆顆除去,勢力不斷擴大。當他的老大感受到威脅時已經太晚了,托尼將老大干掉然后一統了邁阿密毒品市場的天下。
  托尼得勢后他的性格開始變得疑神疑鬼,對周圍的人甚至至親的家人、好兄弟都充滿懷疑。疑心使他逐漸走上了不歸路!
Video
ID : 1
Format : AVC
Format/Info : Advanced Video Codec
Format profile : [email protected]
Format settings : CABAC / 4 Ref Frames
Format settings, CABAC : Yes
Format settings, Reference frames : 4 frames
Codec ID : V_MPEG4/ISO/AVC
Duration : 2 h 49 min
Bit rate mode : Variable
Bit rate : 18.6 Mb/s
Maximum bit rate : 35.0 Mb/s
Width : 1 920 pixels
Height : 1 080 pixels
Display aspect ratio : 16:9
Frame rate mode : Constant
Frame rate : 23.976 (24000/1001) FPS
Color space : YUV
Chroma subsampling : 4:2:0
Bit depth : 8 bits
Scan type : Progressive
Bits/(Pixel*Frame) : 0.375
Stream size : 22.1 GiB (70%)
Title : Scarface.1983.REMASTERED.1080p.BluRay.REMUX.AVC.DTS-HD.MA.7.1-FGT
Language : English
Default : No
Forced : No

Audio #1
ID : 2
Format : DTS XLL
Format/Info : Digital Theater Systems
Commercial name : DTS-HD Master Audio
Codec ID : A_DTS
Duration : 2 h 49 min
Bit rate mode : Variable
Bit rate : 5 687 kb/s
Channel(s) : 8 channels
Channel layout : C L R LFE Lb Rb Lss Rss
Sampling rate : 48.0 kHz
Frame rate : 93.750 FPS (512 SPF)
Bit depth : 24 bits
Compression mode : Lossless
Stream size : 6.75 GiB (21%)
Title : Scarface.1983.REMASTERED.1080p.BluRay.REMUX.AVC.DTS-HD.MA.7.1-FGT
Language : English
Default : Yes
Forced : No

Audio #2
ID : 3
Format : DTS
Format/Info : Digital Theater Systems
Codec ID : A_DTS
Duration : 2 h 49 min
Bit rate mode : Constant
Bit rate : 768 kb/s
Channel(s) : 2 channels
Channel layout : Lt Rt
Sampling rate : 48.0 kHz
Frame rate : 93.750 FPS (512 SPF)
Bit depth : 24 bits
Compression mode : Lossy
Stream size : 933 MiB (3%)
Title : Scarface.1983.REMASTERED.1080p.BluRay.REMUX.AVC.DTS-HD.MA.7.1-FGT
Language : English
Default : No
Forced : No

Audio #3
ID : 4
Format : DTS
Format/Info : Digital Theater Systems
Codec ID : A_DTS
Duration : 2 h 49 min
Bit rate mode : Constant
Bit rate : 768 kb/s
Channel(s) : 2 channels
Channel layout : L R
Sampling rate : 48.0 kHz
Frame rate : 93.750 FPS (512 SPF)
Bit depth : 24 bits
Compression mode : Lossy
Stream size : 933 MiB (3%)
Title : Scarface.1983.REMASTERED.1080p.BluRay.REMUX.AVC.DTS-HD.MA.7.1-FGT
Language : Spanish
Default : No
Forced : No

Audio #4
ID : 5
Format : DTS
Format/Info : Digital Theater Systems
Codec ID : A_DTS
Duration : 2 h 49 min
Bit rate mode : Constant
Bit rate : 768 kb/s
Channel(s) : 2 channels
Channel layout : L R
Sampling rate : 48.0 kHz
Frame rate : 93.750 FPS (512 SPF)
Bit depth : 24 bits
Compression mode : Lossy
Stream size : 933 MiB (3%)
Title : Scarface.1983.REMASTERED.1080p.BluRay.REMUX.AVC.DTS-HD.MA.7.1-FGT
Language : French
Default : No
Forced : No

Text #1
ID : 6
Format : UTF-8
Codec ID : S_TEXT/UTF8
Codec ID/Info : UTF-8 Plain Text
Duration : 2 h 39 min
Bit rate : 57 b/s
Count of elements : 2268
Stream size : 67.5 KiB (0%)
Title : English-SRT
Language : English
Default : Yes
Forced : No

Text #2
ID : 7
Format : UTF-8
Codec ID : S_TEXT/UTF8
Codec ID/Info : UTF-8 Plain Text
Duration : 2 h 42 min
Bit rate : 59 b/s
Count of elements : 2406
Stream size : 70.7 KiB (0%)
Title : English-SDH-SRT
Language : English
Default : No
Forced : No

Text #3
ID : 8
Format : PGS
Muxing mode : zlib
Codec ID : S_HDMV/PGS
Codec ID/Info : Picture based subtitle format used on BDs/HD-DVDs
Duration : 2 h 42 min
Bit rate : 39.8 kb/s
Count of elements : 4816
Stream size : 46.2 MiB (0%)
Title : English-PGS
Language : English
Default : No
Forced : No

Text #4
ID : 9
Format : PGS
Muxing mode : zlib
Codec ID : S_HDMV/PGS
Codec ID/Info : Picture based subtitle format used on BDs/HD-DVDs
Duration : 2 h 43 min
Bit rate : 25.0 kb/s
Count of elements : 3683
Stream size : 29.4 MiB (0%)
Title : Spanish-PGS
Language : Spanish
Default : No
Forced : No

Text #5
ID : 10
Format : PGS
Muxing mode : zlib
Codec ID : S_HDMV/PGS
Codec ID/Info : Picture based subtitle format used on BDs/HD-DVDs
Duration : 2 h 43 min
Bit rate : 28.2 kb/s
Count of elements : 3636
Stream size : 33.0 MiB (0%)
Title : French-PGS
Language : French
Default : No
Forced : No

Text #6
ID : 11
Format : PGS
Muxing mode : zlib
Codec ID : S_HDMV/PGS
Codec ID/Info : Picture based subtitle format used on BDs/HD-DVDs
Duration : 1 h 19 min
Bit rate : 90 b/s
Count of elements : 6
Stream size : 53.0 KiB (0%)
Title : Spanish-FORCED-PGS
Language : Spanish
Default : No
Forced : No

Text #7
ID : 12
Format : PGS
Muxing mode : zlib
Codec ID : S_HDMV/PGS
Codec ID/Info : Picture based subtitle format used on BDs/HD-DVDs
Duration : 2 h 43 min
Bit rate : 741 b/s
Count of elements : 80
Stream size : 890 KiB (0%)
Title : French-FORCED-PGS
Language : French
Default : No
Forced : No

Menu
00:00:00.000 : en:Chapter 01
00:08:11.532 : en:Chapter 02
00:10:55.196 : en:Chapter 03
00:13:40.152 : en:Chapter 04
00:15:42.983 : en:Chapter 05
00:20:58.257 : en:Chapter 06
00:29:51.247 : en:Chapter 07
00:33:09.320 : en:Chapter 08
00:34:42.497 : en:Chapter 09
00:43:13.132 : en:Chapter 10
00:46:46.011 : en:Chapter 11
00:50:45.208 : en:Chapter 12
00:59:02.664 : en:Chapter 13
01:04:15.601 : en:Chapter 14
01:08:20.429 : en:Chapter 15
01:12:57.498 : en:Chapter 16
01:17:17.799 : en:Chapter 17
01:23:33.091 : en:Chapter 18
01:28:48.323 : en:Chapter 19
01:33:44.243 : en:Chapter 20
01:43:31.496 : en:Chapter 21
01:47:01.706 : en:Chapter 22
01:51:48.410 : en:Chapter 23
01:57:19.991 : en:Chapter 24
02:02:43.105 : en:Chapter 25
02:07:08.203 : en:Chapter 26
02:13:58.405 : en:Chapter 27
02:16:04.447 : en:Chapter 28
02:21:46.080 : en:Chapter 29
02:24:22.779 : en:Chapter 30
02:30:37.862 : en:Chapter 31
02:35:14.888 : en:Chapter 32
02:37:33.068 : en:Chapter 33
02:40:04.303 : en:Chapter 34
02:43:20.999 : en:Chapter 35





1 個附件 售價 大小 下載 時間

Scarface.1983.REMASTERED.1080p.BluRay.REMUX.AVC.DTS-HD.MA.7.1-FGT.torrent 0 金幣 79.65K 658 次 1月前

#1樓
發帖時間:2019-10-14 20:06:12   |   回復數:2
jokingcheung
一代宗師
謝謝分享
1月前 #2樓
911degrees
隱世仙人♂
非常感謝,謝謝分享
1月前 #3樓
游客組