coor
一代宗師

[2019] [歐美] [喜劇] [BD-1080P] 變身特工/偽裝間諜 Spies.in.Disguise.2019.1080p.BluRay.x264-YOL0W 5.48GB

-->

帖子完整標題:變身特工/偽裝間諜 Spies.in.Disguise.2019.1080p.BluRay.x264-YOL0W 5.48GB




◎譯  名 變身特工 / 偽裝間諜 / 變身特務(臺) / 變雀特工(港) / 百變間諜王 / 間諜偽裝 / 飛鴿特工隊 / 鴿中諜
◎片  名 Spies in Disguise
◎年  代 2019
◎產  地 美國
◎類  別 喜劇 / 動作 / 科幻 / 動畫
◎語  言 英語 / 日語
◎上映日期 2019-12-04(加州首映) / 2019-12-25(美國) / 2020-01-03(中國大陸)
◎IMDb評分 6.8/10 from 6782 users
◎IMDb鏈接 https://www.imdb.com/title/tt5814534
◎豆瓣評分 7.7/10 from 26462 users
◎豆瓣鏈接 https://movie.douban.com/subject/27000084/
◎片  長 102分鐘
◎導  演 尼克·布魯諾 Nick Bruno / 特洛伊·奎安 Troy Quane
◎編  劇 布拉德·科普蘭 Brad Copeland / 勞埃德·泰勒 Lloyd Taylor
◎主  演 威爾·史密斯 Will Smith
      湯姆·赫蘭德 Tom Holland
      拉什達·瓊斯 Rashida Jones
      本·門德爾森 Ben Mendelsohn
      瑞芭·麥肯泰爾 Reba McEntire
      瑞秋·布羅斯納安 Rachel Brosnahan
      凱倫·吉蘭 Karen Gillan
      DJ卡拉德 DJ Khaled
      丘增 Masi Oka
      斯特凡 Stefania Spampinato
      卡拉·吉門內斯 Carla Jimenez
      JB·布蘭科 JB Blanc
      艾德里安·岡薩雷斯 Adrian Gonzalez
      尼克·布魯諾 Nick Bruno
      特洛伊·奎安 Troy Quane


◎標  簽 動畫 | 喜劇 | 搞笑 | 美國 | 科幻 | 二十世紀??怂?| 動作 | 藍天工作室

◎簡  介

  蘭斯與沃爾特,前者是超級炫酷又迷人的間諜,后者負責發明蘭斯使用的各種炫酷小道具。危難當頭,他們必須團結一致才能拯救世界。

◎獲獎情況

  第47屆動畫安妮獎(2020)
  最佳配樂(提名) 西奧多·沙皮洛 / 馬克·容森
  最佳角色設計(提名)

  第67屆美國音效剪輯協會獎(2020)
  金卷軸獎 最佳動畫片音效剪輯(提名)
Video
ID : 1
Format : AVC
Format/Info : Advanced Video Codec
Format profile : [email protected]
Format settings : CABAC / 5 Ref Frames
Format settings, CABAC : Yes
Format settings, Reference frames : 5 frames
Codec ID : V_MPEG4/ISO/AVC
Duration : 1 h 41 min
Bit rate : 6 169 kb/s
Width : 1 920 pixels
Height : 808 pixels
Display aspect ratio : 2.40:1
Frame rate mode : Constant
Frame rate : 23.976 (24000/1001) FPS
Color space : YUV
Chroma subsampling : 4:2:0
Bit depth : 8 bits
Scan type : Progressive
Bits/(Pixel*Frame) : 0.166
Stream size : 4.39 GiB (80%)
Writing library : x264 core 159 r2991 1771b55
Encoding settings : cabac=1 / ref=5 / deblock=1:-3:-3 / analyse=0x3:0x133 / me=umh / subme=7 / psy=1 / psy_rd=1.00:0.00 / mixed_ref=1 / me_range=16 / chroma_me=1 / trellis=2 / 8x8dct=1 / cqm=0 / deadzone=21,11 / fast_pskip=1 / chroma_qp_offset=-2 / threads=16 / lookahead_threads=2 / sliced_threads=0 / nr=0 / decimate=1 / interlaced=0 / bluray_compat=0 / constrained_intra=0 / bframes=3 / b_pyramid=2 / b_adapt=2 / b_bias=0 / direct=3 / weightb=1 / open_gop=0 / weightp=2 / keyint=250 / keyint_min=23 / scenecut=40 / intra_refresh=0 / rc_lookahead=50 / rc=2pass / mbtree=1 / bitrate=6169 / ratetol=1.0 / qcomp=0.60 / qpmin=0 / qpmax=69 / qpstep=4 / cplxblur=20.0 / qblur=0.5 / ip_ratio=1.40 / aq=1:1.00
Language : English
Default : Yes
Forced : No
Color range : Limited
Matrix coefficients : BT.709

Audio
ID : 2
Format : DTS ES
Format/Info : Digital Theater Systems
Commercial name : DTS-ES Matrix
Codec ID : A_DTS
Duration : 1 h 41 min
Bit rate mode : Constant
Bit rate : 1 509 kb/s
Channel(s) : 6 channels
Channel(s)_Original : 7 channels
Channel layout : C L R Ls Rs Cb LFE
Sampling rate : 48.0 kHz
Frame rate : 93.750 FPS (512 SPF)
Bit depth : 24 bits
Compression mode : Lossy
Stream size : 1.07 GiB (20%)
Title : English
Language : English
Default : Yes
Forced : No

Text
ID : 3
Format : UTF-8
Codec ID : S_TEXT/UTF8
Codec ID/Info : UTF-8 Plain Text
Duration : 1 h 18 min
Bit rate : 0 b/s
Count of elements : 6
Stream size : 142 Bytes (0%)
Title : English Forced
Language : English
Default : Yes
Forced : Yes

Menu
00:00:00.000 : en:Chapter 01
00:04:09.499 : en:Chapter 02
00:06:54.497 : en:Chapter 03
00:11:53.838 : en:Chapter 04
00:15:31.013 : en:Chapter 05
00:20:35.484 : en:Chapter 06
00:23:20.858 : en:Chapter 07
00:26:42.434 : en:Chapter 08
00:30:59.524 : en:Chapter 09
00:36:06.581 : en:Chapter 10
00:41:34.951 : en:Chapter 11
00:45:41.947 : en:Chapter 12
00:49:57.786 : en:Chapter 13
00:53:58.902 : en:Chapter 14
00:56:34.308 : en:Chapter 15
01:00:06.770 : en:Chapter 16
01:08:46.914 : en:Chapter 17
01:12:51.784 : en:Chapter 18
01:17:34.275 : en:Chapter 19
01:20:18.939 : en:Chapter 20
01:23:19.077 : en:Chapter 21
01:26:05.243 : en:Chapter 22
01:29:47.173 : en:Chapter 23
01:33:08.875 : en:Chapter 24





1 個附件 售價 大小 下載 時間

Spies.in.Disguise.2019.1080p.BluRay.x264-YOL0W.torrent 0 金幣 28.28K 6839 次 1月前

#1樓
發帖時間:2020-02-27 11:16:41   |   回復數:3
911degrees
隱世仙人♂
非常感謝,謝謝分享
1月前 #2樓
BoatJ
小有名氣
謝謝分享,下載收藏
1月前 #3樓
liyouchai
隱世仙人♂
謝謝樓主分享資源
1月前 #4樓
游客組