coor
一代宗師

[2016] [歐美] [其他] [WEB-1080P] 鄰居中的圣戰分子 The.Jihadis.Next.Door.2016.1080p.WEBRip.x264-RARBG 907.86MB

-->

帖子完整標題:鄰居中的圣戰分子 The.Jihadis.Next.Door.2016.1080p.WEBRip.x264-RARBG 907.86MB




◎譯  名 鄰居中的圣戰分子
◎片  名 The Jihadis Next Door
◎年  代 2016
◎產  地 英國
◎類  別 紀錄片
◎語  言 英語
◎上映日期 2016-01-19(英國)
◎IMDb評分 6.9/10 from 207 users
◎IMDb鏈接 https://www.imdb.com/title/tt5366234
◎豆瓣評分 0/10 from 0 users
◎豆瓣鏈接 https://movie.douban.com/subject/26834680/
◎導  演 Jamie Roberts
◎主  演 Abu Haleema
      Jamie Roberts
      Abu Rumaysah
      Mohammed Shamsuddin
      特蕾莎·梅 Theresa May


◎標  簽 紀錄片 | 英國 | 恐怖主義 | 伊斯蘭國 | ISIS | 2016 | 圣母 | UK

◎簡  介

  Over the course of two years film-maker Jamie Roberts meets those spreading extremist Islamic fundamentalism in Britain, including a bouncy castle salesman who is now one of the world's most wanted men.
Video
ID : 1
Format : AVC
Format/Info : Advanced Video Codec
Format profile : [email protected]
Format settings : CABAC / 4 Ref Frames
Format settings, CABAC : Yes
Format settings, Reference frames : 4 frames
Codec ID : avc1
Codec ID/Info : Advanced Video Coding
Duration : 46 min 30 s
Bit rate : 2 500 kb/s
Width : 1 920 pixels
Height : 1 080 pixels
Display aspect ratio : 16:9
Frame rate mode : Constant
Frame rate : 25.000 FPS
Color space : YUV
Chroma subsampling : 4:2:0
Bit depth : 8 bits
Scan type : Progressive
Bits/(Pixel*Frame) : 0.048
Stream size : 831 MiB (92%)
Writing library : x264 core 152 r2851M ba24899
Encoding settings : cabac=1 / ref=4 / deblock=1:-1:-1 / analyse=0x3:0x113 / me=umh / subme=9 / psy=1 / psy_rd=1.00:0.15 / mixed_ref=1 / me_range=24 / chroma_me=1 / trellis=2 / 8x8dct=1 / cqm=0 / deadzone=21,11 / fast_pskip=1 / chroma_qp_offset=-3 / threads=16 / lookahead_threads=4 / sliced_threads=0 / nr=0 / decimate=1 / interlaced=0 / bluray_compat=0 / constrained_intra=0 / bframes=3 / b_pyramid=2 / b_adapt=2 / b_bias=0 / direct=3 / weightb=1 / open_gop=0 / weightp=2 / keyint=250 / keyint_min=25 / scenecut=40 / intra_refresh=0 / rc_lookahead=50 / rc=2pass / mbtree=1 / bitrate=2500 / ratetol=1.0 / qcomp=0.60 / qpmin=0 / qpmax=69 / qpstep=4 / cplxblur=20.0 / qblur=0.5 / vbv_maxrate=31250 / vbv_bufsize=31250 / nal_hrd=none / filler=0 / ip_ratio=1.40 / aq=3:1.00
Encoded date : UTC 2020-02-27 02:25:02
Tagged date : UTC 2020-02-27 02:25:02
Codec configuration box : avcC

Audio
ID : 2
Format : AAC LC
Format/Info : Advanced Audio Codec Low Complexity
Codec ID : mp4a-40-2
Duration : 46 min 30 s
Duration_LastFrame : -11 ms
Bit rate mode : Constant
Bit rate : 224 kb/s
Channel(s) : 2 channels
Channel layout : L R
Sampling rate : 48.0 kHz
Frame rate : 46.875 FPS (1024 SPF)
Compression mode : Lossy
Stream size : 74.5 MiB (8%)
Language : English
Default : Yes
Alternate group : 1
Encoded date : UTC 2020-02-27 02:25:02
Tagged date : UTC 2020-02-27 02:25:02





1 個附件 售價 大小 下載 時間

The.Jihadis.Next.Door.2016.1080p.WEBRip.x264-RARBG.torrent 0 金幣 18.34K 273 次 1月前

#1樓
發帖時間:2020-02-27 11:59:40   |   回復數:1
911degrees
隱世仙人♂
非常感謝,謝謝分享
1月前 #2樓
游客組