coor
一代宗師

[2019] [其他] [劇情] [BD-720P] 同義詞 Synonyms.2019.720p.BluRay.x264-BRMP 5.46GB

-->

帖子完整標題:同義詞 Synonyms.2019.720p.BluRay.x264-BRMP 5.46GB




◎譯  名 同義詞 / Synonyms / 出走巴黎(臺) / 字旅巴黎(港)
◎片  名 Synonymes
◎年  代 2019
◎產  地 法國 / 德國 / 以色列
◎類  別 劇情
◎語  言 法語 / 希伯來語
◎上映日期 2019-02-13(柏林電影節) / 2019-03-27(法國)
◎IMDb評分 6.6/10 from 3252 users
◎IMDb鏈接 https://www.imdb.com/title/tt7016254
◎豆瓣評分 7.0/10 from 7037 users
◎豆瓣鏈接 https://movie.douban.com/subject/27047918/
◎片  長 123分鐘
◎導  演 那達夫·拉皮德 Nadav Lapid
◎編  劇 那達夫·拉皮德 Nadav Lapid
◎主  演 湯姆·梅西爾 Tom Mercier
      昆汀·多爾馬爾 Quentin Dolmaire
      露易絲·謝維洛特 Louise Chevillotte
      喬納森·布迪納 Jonathan Boudina
      達梅爾·拉扎爾 Djamel Lazaar
      蓋爾·瑞斯 Ga?l Raes


◎標  簽 法國 | 以色列 | 柏林電影節 | 2019 | 劇情 | 同性 | 德國 | LGBTQ

◎簡  介

  那達夫·拉皮德執導,故事講述一名男子從以色列逃往法國僅靠著法語字典來與人互動、生活,卻在最后感受到被異地拒絕的故事。
  以色列退伍士兵約亞夫(湯姆·梅西耶 飾),一心向往自由開放的法國,卻在來到巴黎后慘遭洗劫。眼看即將淪落街頭,約亞夫遇到一對生活富裕的情侶—作家艾米勒和女友卡洛琳,因而幸運獲救。
  一無所有的約亞夫,索性決定脫胎換骨,從此當個法國人。他開始拒說希伯來語(母語),并通過背誦同義詞方式,積極學習法語,全力融入這個他心目中的理想國度。有趣的是,他過去在軍中的悲慘遭遇,卻成了艾米勒筆下的絕佳題材;而他媲美羅馬雕像的健美身材,也淪為卡洛琳每晚的意淫目標,永無止盡地利用他滿足性欲,三人于是發展出一段極其微妙的三角關系…

◎獲獎情況

  第69屆柏林國際電影節(2019)
  金熊獎 那達夫·拉皮德
  費比西獎(國際影評人聯盟獎) 競賽單元最佳影片 那達夫·拉皮德
  泰迪熊獎 最佳電影(提名) 那達夫·拉皮德
Video
ID : 1
Format : AVC
Format/Info : Advanced Video Codec
Format profile : [email protected]
Format settings : CABAC / 5 Ref Frames
Format settings, CABAC : Yes
Format settings, Reference frames : 5 frames
Codec ID : V_MPEG4/ISO/AVC
Duration : 2 h 3 min
Bit rate : 4 803 kb/s
Width : 1 280 pixels
Height : 536 pixels
Display aspect ratio : 2.40:1
Frame rate mode : Constant
Frame rate : 23.976 (24000/1001) FPS
Color space : YUV
Chroma subsampling : 4:2:0
Bit depth : 8 bits
Scan type : Progressive
Bits/(Pixel*Frame) : 0.292
Stream size : 4.15 GiB (76%)
Writing library : x264 core 159 r2991 1771b55
Encoding settings : cabac=1 / ref=5 / deblock=1:0:0 / analyse=0x3:0x133 / me=umh / subme=7 / psy=1 / psy_rd=1.00:0.00 / mixed_ref=1 / me_range=16 / chroma_me=1 / trellis=1 / 8x8dct=1 / cqm=0 / deadzone=21,11 / fast_pskip=0 / chroma_qp_offset=-2 / threads=17 / lookahead_threads=2 / sliced_threads=0 / nr=0 / decimate=1 / interlaced=0 / bluray_compat=0 / constrained_intra=0 / bframes=3 / b_pyramid=2 / b_adapt=1 / b_bias=0 / direct=1 / weightb=1 / open_gop=0 / weightp=2 / keyint=240 / keyint_min=23 / scenecut=40 / intra_refresh=0 / rc_lookahead=40 / rc=2pass / mbtree=1 / bitrate=4803 / ratetol=1.0 / qcomp=0.60 / qpmin=10 / qpmax=51 / qpstep=4 / cplxblur=20.0 / qblur=0.5 / ip_ratio=1.40 / aq=1:1.00
Default : Yes
Forced : No

Audio
ID : 2
Format : DTS
Format/Info : Digital Theater Systems
Codec ID : A_DTS
Duration : 2 h 3 min
Bit rate mode : Constant
Bit rate : 1 509 kb/s
Channel(s) : 6 channels
Channel layout : C L R Ls Rs LFE
Sampling rate : 48.0 kHz
Frame rate : 93.750 FPS (512 SPF)
Bit depth : 24 bits
Compression mode : Lossy
Stream size : 1.31 GiB (24%)
Language : French
Default : Yes
Forced : No

Text
ID : 3
Format : UTF-8
Codec ID : S_TEXT/UTF8
Codec ID/Info : UTF-8 Plain Text
Duration : 1 h 56 min
Bit rate : 33 b/s
Count of elements : 1079
Stream size : 28.9 KiB (0%)
Language : English
Default : Yes
Forced : Yes

Menu
00:00:00.000 : en:Chapter 01
00:12:18.071 : en:Chapter 02
00:22:04.657 : en:Chapter 03
00:36:06.122 : en:Chapter 04
00:48:39.125 : en:Chapter 05
01:00:55.443 : en:Chapter 06
01:11:28.201 : en:Chapter 07
01:22:05.337 : en:Chapter 08
01:36:01.381 : en:Chapter 09
01:50:34.962 : en:Chapter 10





1 個附件 售價 大小 下載 時間

Synonyms.2019.720p.BluRay.x264-BRMP.torrent 0 金幣 28.07K 553 次 1月前

#1樓
發帖時間:2020-02-27 14:24:44   |   回復數:1
911degrees
隱世仙人♂
非常感謝,謝謝分享
1月前 #2樓
游客組