coor
一代宗師

[更 早] [其他] [喜劇] [BD-720P] 私家偵探 Non.Stop.Trouble.with.Spies.1983.DUBBED.720p.BluRay.x264-GUACAMOLE 4.37GB

-->

帖子完整標題:私家偵探 Non.Stop.Trouble.with.Spies.1983.DUBBED.720p.BluRay.x264-GUACAMOLE 4.37GB




◎譯  名 私家偵探
◎片  名 Der Schnüffler
◎年  代 1983
◎產  地 西德
◎類  別 喜劇
◎語  言 俄語 / 英語 / 德語
◎上映日期 1983
◎IMDb評分 5.8/10 from 234 users
◎IMDb鏈接 https://www.imdb.com/title/tt0086257
◎豆瓣評分 0/10 from 0 users
◎豆瓣鏈接 https://movie.douban.com/subject/5049707/
◎片  長 Germany: 91 分鐘
◎導  演 Ottokar Runze
◎編  劇 Christian Rateuke
◎主  演 迪特·哈勒沃登 Dieter Hallervorden
      Catherine Alric
      蒂洛·普呂克訥 Tilo Prückner
      安東·迪夫倫 Anton Diffring
      Siegfried Wischnewski
      Peter Kuiper
      Joachim Wichmann
      埃迪·康斯坦丁 Eddie Constantine


◎簡  介

  暫無相關劇情介紹
Video
ID : 1
Format : AVC
Format/Info : Advanced Video Codec
Format profile : [email protected]
Format settings : CABAC / 5 Ref Frames
Format settings, CABAC : Yes
Format settings, Reference frames : 5 frames
Codec ID : V_MPEG4/ISO/AVC
Duration : 1 h 31 min
Bit rate : 5 329 kb/s
Width : 1 200 pixels
Height : 720 pixels
Display aspect ratio : 5:3
Frame rate mode : Constant
Frame rate : 23.976 (24000/1001) FPS
Color space : YUV
Chroma subsampling : 4:2:0
Bit depth : 8 bits
Scan type : Progressive
Bits/(Pixel*Frame) : 0.257
Stream size : 3.40 GiB (78%)
Writing library : x264 core 159 r2991 1771b55
Encoding settings : cabac=1 / ref=5 / deblock=1:0:0 / analyse=0x3:0x113 / me=umh / subme=8 / psy=1 / psy_rd=1.00:0.00 / mixed_ref=1 / me_range=16 / chroma_me=1 / trellis=2 / 8x8dct=1 / cqm=0 / deadzone=21,11 / fast_pskip=0 / chroma_qp_offset=-2 / threads=22 / lookahead_threads=3 / sliced_threads=0 / nr=0 / decimate=1 / interlaced=0 / bluray_compat=0 / constrained_intra=0 / bframes=3 / b_pyramid=2 / b_adapt=1 / b_bias=0 / direct=1 / weightb=1 / open_gop=0 / weightp=2 / keyint=250 / keyint_min=23 / scenecut=40 / intra_refresh=0 / rc_lookahead=50 / rc=2pass / mbtree=1 / bitrate=5329 / ratetol=1.0 / qcomp=0.60 / qpmin=0 / qpmax=69 / qpstep=4 / cplxblur=20.0 / qblur=0.5 / ip_ratio=1.40 / aq=1:1.00
Default : Yes
Forced : No

Audio
ID : 2
Format : DTS
Format/Info : Digital Theater Systems
Codec ID : A_DTS
Duration : 1 h 31 min
Bit rate mode : Constant
Bit rate : 1 509 kb/s
Channel(s) : 2 channels
Channel layout : L R
Sampling rate : 48.0 kHz
Frame rate : 93.750 FPS (512 SPF)
Bit depth : 24 bits
Compression mode : Lossy
Stream size : 986 MiB (22%)
Language : English
Default : Yes
Forced : No

Menu
00:00:00.000 : en:00:00:00.000
00:03:14.194 : en:00:03:14.194
00:07:09.429 : en:00:07:09.429
00:11:58.718 : en:00:11:58.718
00:15:17.917 : en:00:15:17.917
00:17:59.078 : en:00:17:59.078
00:22:50.369 : en:00:22:50.369
00:25:42.541 : en:00:25:42.541
00:30:27.826 : en:00:30:27.826
00:32:32.951 : en:00:32:32.951
00:37:47.265 : en:00:37:47.265
00:42:04.522 : en:00:42:04.522
00:47:15.833 : en:00:47:15.833
00:53:11.188 : en:00:53:11.188
00:57:49.466 : en:00:57:49.466
01:01:45.702 : en:01:01:45.702
01:07:04.020 : en:01:07:04.020
01:12:26.342 : en:01:12:26.342
01:14:34.470 : en:01:14:34.470
01:17:32.648 : en:01:17:32.648
01:20:18.981 : en:01:20:18.981
01:24:30.232 : en:01:24:30.232
01:27:26.408 : en:01:27:26.408
01:29:15.517 : en:01:29:15.517





1 個附件 售價 大小 下載 時間

Non.Stop.Trouble.with.Spies.1983.DUBBED.720p.BluRay.x264-GUACAMOLE.torrent 0 金幣 44.26K 168 次 1月前

#1樓
發帖時間:2020-02-27 14:28:40   |   回復數:1
911degrees
隱世仙人♂
非常感謝,謝謝分享
1月前 #2樓
游客組