coor
一代宗師

[2019] [韓國] [劇情] [BD-4K] 寄生蟲 Parasite.2019.KOREAN.2160p.BluRay.x265.10bit.SDR.DTS-HD.MA.TrueHD.7.1.Atmos-

-->

帖子完整標題:寄生蟲 Parasite.2019.KOREAN.2160p.BluRay.x265.10bit.SDR.DTS-HD.MA.TrueHD.7.1.Atmos-SWTYBLZ 78.26GB




◎譯  名 寄生蟲 / Gisaengchung / Parasite / 上流寄生族(港) / 寄生上流(臺) / ?????
◎片  名 ???
◎年  代 2019
◎產  地 韓國
◎類  別 劇情 / 喜劇
◎語  言 韓語 / 英語
◎上映日期 2019-05-21(戛納電影節) / 2019-05-30(韓國)
◎IMDb評分 8.6/10 from 276321 users
◎IMDb鏈接 https://www.imdb.com/title/tt6751668
◎豆瓣評分 8.7/10 from 815036 users
◎豆瓣鏈接 https://movie.douban.com/subject/27010768/
◎片  長 132分鐘
◎導  演 奉俊昊 Joon-ho Bong
◎編  劇 奉俊昊 Joon-ho Bong / 韓進元 Jin-won Han
◎主  演 宋康昊 Kang-ho Song
      李善均 Seon-gyun Lee
      趙汝貞 Yeo-Jeong Jo
      崔宇植 Woo-Sik Choi
      樸素丹 So dam Park
      李靜恩 Jung-eun Lee
      張慧珍 Hye-jin Jang
      鄭知曉 Ji-So Jeong
      樸明勛 Myeong-hoon Park
      樸敘俊 Seo-Joon Park
      樸根祿 Keun-rok Park
      鄭賢俊 Hyun-joon Jung
      樸孝新 Pak Hyo-Shin
      安德烈亞斯·弗龍克 Andreas Fronk


◎標  簽 人性 | 韓國 | 社會 | 黑色幽默 | 劇情 | 犯罪 | 2019 | 金棕櫚

◎簡  介

  基宇(崔宇植 飾)出生在一個貧窮的家庭之中,和妹妹基婷(樸素丹 飾)以及父母在狹窄的地下室里過著相依為命的日子。一天,基宇的同學上門拜訪,他告訴基宇,自己在一個有錢人家里給他們的女兒做家教,太太是一個頭腦簡單出手又闊綽的女人,因為自己要出國留學,所以將家教的職位暫時轉交給基宇。
  就這樣,基宇來到了樸社長(李善均 飾)家中,并且見到了他的太太(趙汝貞 飾),沒過多久,基宇的妹妹和父母也如同寄生蟲一般的進入了樸社長家里工作。然而,他們的野心并沒有止步于此,基宇更是和大小姐墜入了愛河。隨著時間的推移,樸社長家里隱藏的秘密漸漸浮出了水面。

◎獲獎情況

  第92屆奧斯卡金像獎(2020)
  最佳影片 郭信愛 / 奉俊昊
  最佳導演 奉俊昊
  最佳原創劇本 韓進元 / 奉俊昊
  最佳國際影片
  最佳剪輯(提名) 楊勁莫
  最佳藝術指導(提名)

  第72屆戛納電影節(2019)
  主競賽單元 金棕櫚獎 奉俊昊

  第77屆金球獎(2020)
  電影類 最佳導演(提名) 奉俊昊
  電影類 最佳編劇(提名) 韓進元 / 奉俊昊
  電影類 最佳外語片

  第73屆英國電影學院獎(2020)
  電影獎 最佳影片(提名)
  電影獎 最佳導演(提名) 奉俊昊
  電影獎 最佳原創劇本 韓進元 / 奉俊昊
  電影獎 最佳非英語片

  第40屆韓國電影青龍獎(2019)
  最佳影片 奉俊昊
  最佳導演 奉俊昊
  最佳男主角(提名) 宋康昊
  最佳女主角 趙汝貞
  最佳男配角(提名) 樸明勛
  最佳女配角 李靜恩
  最佳女配角(提名) 樸素丹
  最佳劇本(提名)
  最佳攝影(提名)
  最佳剪輯(提名)
  最佳美術
  最佳配樂(提名)

  第44屆多倫多國際電影節(2019)
  觀眾選擇獎(提名) 奉俊昊

  第49屆鹿特丹國際電影節(2020)
  觀眾獎 奉俊昊

  第72屆美國導演工會獎(2020)
  最佳電影導演(提名) 奉俊昊

  第26屆美國演員工會獎(2020)
  電影獎 最佳群戲

  第72屆美國編劇工會獎(2020)
  電影獎 最佳原創劇本 韓進元 / 奉俊昊

  第31屆美國制片人工會獎(2020)
  最佳電影制片人獎(提名)

  第70屆美國剪輯工會獎(2020)
  劇情片最佳剪輯 楊勁莫

  第24屆美國藝術指導工會獎(2020)
  電影獎 最佳當代電影藝術指導(提名) 李河俊

  第67屆美國音效剪輯協會獎(2020)
  金卷軸獎 最佳外語片音效剪輯

  第85屆紐約影評人協會獎(2019)
  最佳外語片

  第91屆美國國家評論協會獎(2019)
  最佳外語片

  第25屆美國評論家選擇電影獎(2020)
  最佳影片(提名)
  最佳導演 奉俊昊
  最佳群戲(提名)
  最佳外語片
  最佳原創劇本(提名) 韓進元 / 奉俊昊
  最佳剪輯(提名)
  最佳美術指導(提名)

  第35屆美國獨立精神獎(2020)
  最佳國際電影

  第22屆英國獨立電影獎(2019)
  最佳外國獨立電影

  第20屆美國電影學會獎(2019)
  特別表彰

  第24屆金衛星獎(2020)
  電影部門 最佳導演(提名) 奉俊昊
  電影部門 最佳外語片(提名)
  電影部門 最佳原創劇本(提名) 奉俊昊

  第23屆好萊塢電影獎(2019)
  年度制片 奉俊昊

  第54屆美國國家影評人協會獎(2020)
  最佳影片
  最佳導演(提名) 奉俊昊
  最佳男配角(提名) 宋康昊
  最佳劇本 韓進元 / 奉俊昊

  第18屆華盛頓影評人協會獎(2019)
  最佳影片
  最佳導演 奉俊昊
  最佳外語片

  第40屆倫敦影評人協會獎(2020)
  年度電影(提名)
  年度外語片(提名)
  年度導演(提名) 奉俊昊
  年度編劇(提名) 韓進元 / 奉俊昊
  技術成就獎(提名) 李河俊

  第40屆波士頓影評人協會獎(2019)
  最佳導演 奉俊昊
  最佳外語片
  最佳群像表演(提名)

  第45屆洛杉磯影評人協會獎(2019)
  最佳影片
  最佳導演 奉俊昊
  最佳男配角 宋康昊
  最佳劇本(提名) 韓進元 / 奉俊昊
  最佳藝術指導(提名)

  第32屆芝加哥影評人協會獎(2019)
  最佳影片(提名)
  最佳導演(提名) 奉俊昊
  最佳女配角(提名) 趙汝貞
  最佳原創劇本(提名) 韓進元 / 奉俊昊
  最佳外語片(提名)
  最佳攝影(提名) 洪坰杓
  最佳藝術指導(提名)

  第13屆底特律影評人協會獎(2019)
  最佳影片

  第4屆亞特蘭大影評人協會獎(2019)
  十佳影片
  最佳導演 奉俊昊
  最佳編劇 韓進元 / 奉俊昊
  最佳外語片

  第23屆美國在線影評人協會獎(2020)
  最佳影片
  最佳導演 奉俊昊
  最佳男配角(提名) 宋康昊
  最佳原創劇本 韓進元 / 奉俊昊
  最佳剪輯 楊勁莫
  最佳非英語片

  第6屆豆瓣電影年度榜單(2019)
  評分最高的外語電影(提名)
  最受關注的非院線電影
  評分最高的韓國電影
  評分最高的喜劇片(提名)
Video
ID : 1
Format : HEVC
Format/Info : High Efficiency Video Coding
Format profile : Main [email protected]@High
Codec ID : V_MPEGH/ISO/HEVC
Duration : 2 h 11 min
Bit rate : 75.5 Mb/s
Width : 3 840 pixels
Height : 1 606 pixels
Display aspect ratio : 2.40:1
Frame rate mode : Constant
Frame rate : 23.976 (24000/1001) FPS
Color space : YUV
Chroma subsampling : 4:2:0
Bit depth : 10 bits
Bits/(Pixel*Frame) : 0.511
Stream size : 69.6 GiB (89%)
Title : Parasite.2019.KOREAN.2160p.BluRay.x265.10bit.SDR.DTS-HD.MA.TrueHD.7.1.Atmos-SWTYBLZ
Writing library : x265 3.0ed72af837053:[Windows][GCC 8.2.0][64 bit] 10bit
Encoding settings : cpuid=1111039 / frame-threads=6 / numa-pools=40 / wpp / no-pmode / no-pme / no-psnr / no-ssim / log-level=2 / input-csp=1 / input-res=3840x1606 / interlace=0 / total-frames=189764 / level-idc=51 / high-tier=1 / uhd-bd=0 / ref=3 / no-allow-non-conformance / repeat-headers / annexb / aud / hrd / info / hash=0 / no-temporal-layers / no-open-gop / min-keyint=1 / keyint=24 / gop-lookahead=0 / bframes=4 / b-adapt=2 / b-pyramid / bframe-bias=0 / rc-lookahead=25 / lookahead-slices=4 / scenecut=40 / radl=0 / no-splice / no-intra-refresh / ctu=64 / min-cu-size=8 / no-rect / no-amp / max-tu-size=32 / tu-inter-depth=1 / tu-intra-depth=1 / limit-tu=0 / rdoq-level=0 / dynamic-rd=0.00 / no-ssim-rd / signhide / no-tskip / nr-intra=0 / nr-inter=0 / no-constrained-intra / strong-intra-smoothing / max-merge=2 / limit-refs=3 / no-limit-modes / me=1 / subme=2 / merange=57 / temporal-mvp / weightp / no-weightb / no-analyze-src-pics / deblock=0:0 / no-sao / no-sao-non-deblock / rd=3 / no-early-skip / rskip / no-fast-intra / no-tskip-fast / no-cu-lossless / no-b-intra / no-splitrd-skip / rdpenalty=0 / psy-rd=2.00 / psy-rdoq=0.00 / no-rd-refine / no-lossless / cbqpoffs=0 / crqpoffs=0 / rc=crf / crf=16.0 / qcomp=0.60 / qpstep=4 / stats-write=0 / stats-read=0 / vbv-maxrate=160000 / vbv-bufsize=160000 / vbv-init=0.9 / crf-max=0.0 / crf-min=0.0 / ipratio=1.40 / pbratio=1.30 / aq-mode=1 / aq-strength=1.00 / cutree / zone-count=0 / no-strict-cbr / qg-size=32 / no-rc-grain / qpmax=69 / qpmin=0 / no-const-vbv / sar=1 / overscan=0 / videoformat=5 / range=0 / colorprim=2 / transfer=2 / colormatrix=2 / chromaloc=0 / display-window=0 / max-cll=0,0 / min-luma=0 / max-luma=1023 / log2-max-poc-lsb=8 / vui-timing-info / vui-hrd-info / slices=1 / opt-qp-pps / opt-ref-list-length-pps / no-multi-pass-opt-rps / scenecut-bias=0.05 / no-opt-cu-delta-qp / no-aq-motion / no-hdr / no-hdr-opt / no-dhdr10-opt / no-idr-recovery-sei / analysis-reuse-level=5 / scale-factor=0 / refine-intra=0 / refine-inter=0 / refine-mv=0 / refine-ctu-distortion=0 / no-limit-sao / ctu-info=0 / no-lowpass-dct / refine-analysis-type=0 / copy-pic=1 / max-ausize-factor=1.0 / no-dynamic-refine / no-single-sei / no-hevc-aq / qp-adaptation-range=1.00
Default : Yes
Forced : No

Audio #1
ID : 2
Format : MLP FBA 16-ch
Format/Info : Meridian Lossless Packing FBA with 16-channel presentation
Commercial name : Dolby TrueHD with Dolby Atmos
Codec ID : A_TRUEHD
Duration : 2 h 11 min
Bit rate mode : Variable
Bit rate : 4 044 kb/s
Maximum bit rate : 6 816 kb/s
Channel(s) : 8 channels
Channel layout : L R C LFE Ls Rs Lb Rb
Sampling rate : 48.0 kHz
Frame rate : 1 200.000 FPS (40 SPF)
Compression mode : Lossless
Stream size : 3.73 GiB (5%)
Title : Parasite.2019.KOREAN.2160p.BluRay.x265.10bit.SDR.DTS-HD.MA.TrueHD.7.1.Atmos-SWTYBLZ
Language : Korean
Default : Yes
Forced : No
Number of dynamic objects : 11
Bed channel count : 1 channel
Bed channel configuration : LFE

Audio #2
ID : 3
Format : DTS XLL
Format/Info : Digital Theater Systems
Commercial name : DTS-HD Master Audio
Codec ID : A_DTS
Duration : 2 h 11 min
Bit rate mode : Variable
Bit rate : 4 108 kb/s
Channel(s) : 8 channels
Channel layout : C L R LFE Lb Rb Lss Rss
Sampling rate : 48.0 kHz
Frame rate : 93.750 FPS (512 SPF)
Bit depth : 24 bits
Compression mode : Lossless
Stream size : 3.79 GiB (5%)
Title : Parasite.2019.KOREAN.2160p.BluRay.x265.10bit.SDR.DTS-HD.MA.TrueHD.7.1.Atmos-SWTYBLZ
Language : Korean
Default : No
Forced : No

Audio #3
ID : 4
Format : AC-3
Format/Info : Audio Coding 3
Commercial name : Dolby Digital
Codec ID : A_AC3
Duration : 2 h 11 min
Bit rate mode : Constant
Bit rate : 640 kb/s
Channel(s) : 6 channels
Channel layout : L R C LFE Ls Rs
Sampling rate : 48.0 kHz
Frame rate : 31.250 FPS (1536 SPF)
Compression mode : Lossy
Stream size : 604 MiB (1%)
Title : Parasite.2019.KOREAN.2160p.BluRay.x265.10bit.SDR.DTS-HD.MA.TrueHD.7.1.Atmos-SWTYBLZ
Language : Korean
Service kind : Complete Main
Default : No
Forced : No

Text #1
ID : 5
Format : UTF-8
Codec ID : S_TEXT/UTF8
Codec ID/Info : UTF-8 Plain Text
Duration : 2 h 5 min
Bit rate : 54 b/s
Count of elements : 1659
Stream size : 49.9 KiB (0%)
Title : English-SRT
Language : English
Default : Yes
Forced : Yes

Text #2
ID : 6
Format : PGS
Muxing mode : zlib
Codec ID : S_HDMV/PGS
Codec ID/Info : Picture based subtitle format used on BDs/HD-DVDs
Duration : 2 h 10 min
Bit rate : 27.8 kb/s
Count of elements : 3548
Stream size : 26.0 MiB (0%)
Title : French-PGS
Language : French
Default : No
Forced : No

Text #3
ID : 7
Format : PGS
Muxing mode : zlib
Codec ID : S_HDMV/PGS
Codec ID/Info : Picture based subtitle format used on BDs/HD-DVDs
Duration : 2 h 11 min
Bit rate : 38.7 kb/s
Count of elements : 5100
Stream size : 36.3 MiB (0%)
Title : French-SDH-PGS
Language : French
Default : No
Forced : No

Menu
00:00:00.000 : en:Chapter 00
00:05:45.803 : en:Chapter 01
00:12:17.236 : en:Chapter 02
00:20:36.485 : en:Chapter 03
00:29:22.844 : en:Chapter 04
00:37:06.224 : en:Chapter 05
00:46:20.652 : en:Chapter 06
00:53:54.481 : en:Chapter 07
01:02:56.647 : en:Chapter 08
01:12:10.993 : en:Chapter 09
01:23:26.793 : en:Chapter 10
01:32:20.368 : en:Chapter 11
01:41:23.285 : en:Chapter 12
01:48:22.537 : en:Chapter 13
01:56:09.003 : en:Chapter 14
02:07:08.203 : en:Chapter 15





1 個附件 售價 大小 下載 時間

Parasite.2019.KOREAN.2160p.BluRay.x265.10bit.SDR.DTS-HD.MA.TrueHD.7.1.Atmos-SWTYBLZ.torrent 0 金幣 196.31K 4872 次 1月前

#1樓
發帖時間:2020-02-27 15:01:43   |   回復數:3
911degrees
隱世仙人♂
非常感謝,謝謝分享
1月前 #2樓
pokuan909
武林高手
謝謝分享
1月前 #3樓
悠悠思
小有名氣
感謝分享高清資源
1月前 #4樓
游客組