coor
一代宗師

[2011] [歐美] [其他] [WEB-1080P] 喬布斯:最后一件事情/史蒂夫·喬布斯:最后一件事情 Steve.Jobs.One.Last.Thing.2011.1080p.WEBRip.x264-RARBG

-->

帖子完整標題:喬布斯:最后一件事情/史蒂夫·喬布斯:最后一件事情 Steve.Jobs.One.Last.Thing.2011.1080p.WEBRip.x264-RARBG 1.06GB




◎譯  名 喬布斯:最后一件事情 / 史蒂夫·喬布斯:最后一件事情
◎片  名 Steve Jobs - One Last Thing
◎年  代 2011
◎產  地 美國
◎類  別 紀錄片
◎語  言 英語
◎上映日期 2011-11-02(美國)
◎IMDb評分 6.8/10 from 734 users
◎IMDb鏈接 https://www.imdb.com/title/tt2096615
◎豆瓣評分 7.7/10 from 283 users
◎豆瓣鏈接 https://movie.douban.com/subject/10439848/
◎片  長 55分鐘
◎導  演 Mimi O'Connor
◎主  演 Robert X. Cringely, Bill Fernandez and Demetri Goritsas


◎標  簽 紀錄片 | 喬布斯 | 傳記 | 美國 | 2011 | stevejobs | 美國電影 | 硅谷

◎簡  介

  在喬布斯離世后,全世界的人們用各種方式紀念這位富有遠見的天才,而授權版喬布斯傳記作者Walter Isaacson也揭示了許多關于喬布斯私人生活的細節,PBS電視臺將于11月2日播放紀念喬布斯的新紀錄片“Steve Jobs - One Last Thing”,片中將會將會有大量曾經與喬布斯合作的采訪片段。
  其中包括蘋果聯合創始人Ronald Wayne,投資NeXT電腦的Ross Perot,“華爾街日報”主要技術專欄作家Walt Mossberg,黑眼豆豆樂隊制作人will.i.am,蘋果第一代鼠標設計師Dean Hovey,PBS系列片主持人Robert Cringely,里德大學書法教授Robert Palladino以及介紹Woz和Jobs相識的Bill Fernandez。
  該紀錄片還會包含從未播放過的1994年采訪喬布斯的片段。喬布斯對生活的理解塑造了他的人格,這也使他為很多行業帶來革命性變革。Steve Jobs - One Last Thing”將于下周三,11月2日晚上10點在美國的PBS電視臺播出。
Video
ID : 1
Format : AVC
Format/Info : Advanced Video Codec
Format profile : [email protected]
Format settings : CABAC / 4 Ref Frames
Format settings, CABAC : Yes
Format settings, Reference frames : 4 frames
Codec ID : avc1
Codec ID/Info : Advanced Video Coding
Duration : 55 min 47 s
Bit rate : 2 500 kb/s
Width : 1 920 pixels
Height : 1 080 pixels
Display aspect ratio : 16:9
Frame rate mode : Constant
Frame rate : 23.976 (23976/1000) FPS
Color space : YUV
Chroma subsampling : 4:2:0
Bit depth : 8 bits
Scan type : Progressive
Bits/(Pixel*Frame) : 0.050
Stream size : 998 MiB (92%)
Writing library : x264 core 152 r2851M ba24899
Encoding settings : cabac=1 / ref=4 / deblock=1:-1:-1 / analyse=0x3:0x113 / me=umh / subme=9 / psy=1 / psy_rd=1.00:0.15 / mixed_ref=1 / me_range=24 / chroma_me=1 / trellis=2 / 8x8dct=1 / cqm=0 / deadzone=21,11 / fast_pskip=1 / chroma_qp_offset=-3 / threads=16 / lookahead_threads=4 / sliced_threads=0 / nr=0 / decimate=1 / interlaced=0 / bluray_compat=0 / constrained_intra=0 / bframes=3 / b_pyramid=2 / b_adapt=2 / b_bias=0 / direct=3 / weightb=1 / open_gop=0 / weightp=2 / keyint=250 / keyint_min=25 / scenecut=40 / intra_refresh=0 / rc_lookahead=50 / rc=2pass / mbtree=1 / bitrate=2500 / ratetol=1.0 / qcomp=0.60 / qpmin=0 / qpmax=69 / qpstep=4 / cplxblur=20.0 / qblur=0.5 / vbv_maxrate=31250 / vbv_bufsize=31250 / nal_hrd=none / filler=0 / ip_ratio=1.40 / aq=3:1.00
Encoded date : UTC 2020-02-27 04:01:55
Tagged date : UTC 2020-02-27 04:01:55
Codec configuration box : avcC

Audio
ID : 2
Format : AAC LC
Format/Info : Advanced Audio Codec Low Complexity
Codec ID : mp4a-40-2
Duration : 55 min 47 s
Duration_LastFrame : -11 ms
Bit rate mode : Constant
Bit rate : 224 kb/s
Channel(s) : 2 channels
Channel layout : L R
Sampling rate : 48.0 kHz
Frame rate : 46.875 FPS (1024 SPF)
Compression mode : Lossy
Stream size : 89.4 MiB (8%)
Default : Yes
Alternate group : 1
Encoded date : UTC 2020-02-27 04:01:55
Tagged date : UTC 2020-02-27 04:01:55





1 個附件 售價 大小 下載 時間

Steve.Jobs.One.Last.Thing.2011.1080p.WEBRip.x264-RARBG.torrent 0 金幣 11.26K 623 次 1月前

#1樓
發帖時間:2020-02-27 15:17:47   |   回復數:2
911degrees
隱世仙人♂
非常感謝,謝謝分享
1月前 #2樓
jokingcheung
一代宗師
謝謝分享
1月前 #3樓
游客組