coor
一代宗師

[2019] [日本] [動作] [WEB-1080P] 精靈寶可夢:超夢的逆襲·進化/ミュウツーの逆襲 EVOLUTION Pokemon.Mewtwo.Strikes.Back.Evolution.2019.DUB

-->

帖子完整標題:精靈寶可夢:超夢的逆襲·進化/ミュウツーの逆襲 EVOLUTION Pokemon.Mewtwo.Strikes.Back.Evolution.2019.DUBBED.1080p.NF.WEBRip.DDP5.1.x264-SiGLA 5.02GB




◎譯  名 精靈寶可夢:超夢的逆襲·進化 / ミュウツーの逆襲 EVOLUTION
◎片  名 劇場版 ポケットモンスター ミュウツーの逆襲 EVOLUTION
◎年  代 2019
◎產  地 日本
◎類  別 動作 / 動畫 / 家庭
◎語  言 日語
◎上映日期 2019-07-12(日本)
◎IMDb評分 6.3/10 from 164 users
◎IMDb鏈接 https://www.imdb.com/title/tt8856470
◎豆瓣評分 7.0/10 from 1304 users
◎豆瓣鏈接 https://movie.douban.com/subject/30272753/
◎片  長 98分鐘
◎導  演 矢島哲生 Tetsuo Yajima / 湯山邦彥 Kunihiko Yuyama
◎編  劇 首藤剛志 Takeshi Shudo / 田尻智 Satoshi Tajiri
◎主  演 松本梨香 Rica Matsumoto
      大谷育江 Ikue Ootani
      市村正親 Masachika Ichimura
      飯冢雅弓 Mayumi Iizuka
      興梠里美 Satomi Koorogi
      上田祐司 Y?ji Ueda
      林原惠美 Megumi Hayashibara
      三木真一郎 Shinichir? Miki
      犬山犬子 Inuko Inuyama
      愛河里花子 Rikako Aikawa
      高木涉 Wataru Takagi
      山寺宏一 K?ichi Yamadera


◎標  簽 精靈寶可夢 | 日本 | 動畫 | 劇場版 | 寵物小精靈 | Pokemon | 2019 | 日本動畫

◎簡  介

  《精靈寶可夢:超夢的逆襲·進化》的故事講述的是一群瘋狂的科學家,為了自己的夢想,研制出一套只需要少許基因便可復制出寶可夢的機器,并把發掘到的世界最強寶可夢復制成了擁有比夢幻更強能力的超夢。但當超夢醒來后,卻因無法找尋到真正的自我而暴走?;鸺牭睦洗蟪霈F在超夢的面前,用花言巧語把迷失自我的超夢拉攏過來為自己辦事,但沒過多少時間,超夢再次對自我感到迷茫。超夢回到那個復制它的島嶼,決定開始它的復仇之戰。
Video
ID : 1
Format : AVC
Format/Info : Advanced Video Codec
Format profile : [email protected]
Format settings : CABAC / 3 Ref Frames
Format settings, CABAC : Yes
Format settings, Reference frames : 3 frames
Codec ID : V_MPEG4/ISO/AVC
Duration : 1 h 37 min
Bit rate mode : Variable
Bit rate : 6 810 kb/s
Maximum bit rate : 10.2 Mb/s
Width : 1 920 pixels
Height : 1 080 pixels
Display aspect ratio : 16:9
Frame rate mode : Constant
Frame rate : 23.976 (24000/1001) FPS
Color space : YUV
Chroma subsampling : 4:2:0
Bit depth : 8 bits
Scan type : Progressive
Bits/(Pixel*Frame) : 0.137
Stream size : 4.58 GiB (91%)
Writing library : x264 core 148 r2717 0d2410d
Encoding settings : cabac=1 / ref=3 / deblock=1:0:0 / analyse=0x1:0x111 / me=umh / subme=10 / psy=1 / psy_rd=1.00:0.00 / mixed_ref=1 / me_range=24 / chroma_me=1 / trellis=2 / 8x8dct=0 / cqm=0 / deadzone=21,11 / fast_pskip=1 / chroma_qp_offset=-2 / threads=8 / lookahead_threads=1 / sliced_threads=0 / nr=0 / decimate=1 / interlaced=0 / bluray_compat=0 / stitchable=1 / constrained_intra=0 / bframes=2 / b_pyramid=0 / b_adapt=2 / b_bias=0 / direct=3 / weightb=1 / open_gop=0 / weightp=2 / keyint=250 / keyint_min=23 / scenecut=0 / intra_refresh=0 / rc_lookahead=48 / rc=2pass / mbtree=1 / bitrate=6810 / ratetol=1.0 / qcomp=0.50 / qpmin=6 / qpmax=51 / qpstep=4 / cplxblur=20.0 / qblur=0.5 / vbv_maxrate=10215 / vbv_bufsize=13620 / nal_hrd=vbr / filler=0 / ip_ratio=1.40 / aq=1:1.00
Default : Yes
Forced : No

Audio
ID : 2
Format : E-AC-3
Format/Info : Enhanced AC-3
Commercial name : Dolby Digital Plus
Codec ID : A_EAC3
Duration : 1 h 37 min
Bit rate mode : Constant
Bit rate : 640 kb/s
Channel(s) : 6 channels
Channel layout : L R C LFE Ls Rs
Sampling rate : 48.0 kHz
Frame rate : 31.250 FPS (1536 SPF)
Compression mode : Lossy
Stream size : 448 MiB (9%)
Language : English
Service kind : Complete Main
Default : Yes
Forced : No

Text #1
ID : 3
Format : UTF-8
Codec ID : S_TEXT/UTF8
Codec ID/Info : UTF-8 Plain Text
Duration : 1 h 34 min
Bit rate : 43 b/s
Count of elements : 1100
Stream size : 30.1 KiB (0%)
Title : SDH
Language : English
Default : No
Forced : No

Text #2
ID : 4
Format : UTF-8
Codec ID : S_TEXT/UTF8
Codec ID/Info : UTF-8 Plain Text
Duration : 1 h 31 min
Bit rate : 47 b/s
Count of elements : 623
Stream size : 31.7 KiB (0%)
Language : Arabic
Default : No
Forced : No

Text #3
ID : 5
Format : UTF-8
Codec ID : S_TEXT/UTF8
Codec ID/Info : UTF-8 Plain Text
Duration : 1 h 31 min
Bit rate : 27 b/s
Count of elements : 666
Stream size : 18.0 KiB (0%)
Language : Czech
Default : No
Forced : No

Text #4
ID : 6
Format : UTF-8
Codec ID : S_TEXT/UTF8
Codec ID/Info : UTF-8 Plain Text
Duration : 1 h 31 min
Bit rate : 27 b/s
Count of elements : 506
Stream size : 18.7 KiB (0%)
Language : Danish
Default : No
Forced : No

Text #5
ID : 7
Format : UTF-8
Codec ID : S_TEXT/UTF8
Codec ID/Info : UTF-8 Plain Text
Duration : 1 h 31 min
Bit rate : 30 b/s
Count of elements : 632
Stream size : 20.1 KiB (0%)
Language : German
Default : No
Forced : No

Text #6
ID : 8
Format : UTF-8
Codec ID : S_TEXT/UTF8
Codec ID/Info : UTF-8 Plain Text
Duration : 1 h 31 min
Bit rate : 43 b/s
Count of elements : 636
Stream size : 28.7 KiB (0%)
Language : Greek
Default : No
Forced : No

Text #7
ID : 9
Format : UTF-8
Codec ID : S_TEXT/UTF8
Codec ID/Info : UTF-8 Plain Text
Duration : 1 h 31 min
Bit rate : 29 b/s
Count of elements : 578
Stream size : 19.5 KiB (0%)
Title : Latin American
Language : Spanish
Default : No
Forced : No

Text #8
ID : 10
Format : UTF-8
Codec ID : S_TEXT/UTF8
Codec ID/Info : UTF-8 Plain Text
Duration : 1 h 31 min
Bit rate : 26 b/s
Count of elements : 574
Stream size : 17.7 KiB (0%)
Title : European
Language : Spanish
Default : No
Forced : No

Text #9
ID : 11
Format : UTF-8
Codec ID : S_TEXT/UTF8
Codec ID/Info : UTF-8 Plain Text
Duration : 1 h 31 min
Bit rate : 28 b/s
Count of elements : 657
Stream size : 19.2 KiB (0%)
Language : Finnish
Default : No
Forced : No

Text #10
ID : 12
Format : UTF-8
Codec ID : S_TEXT/UTF8
Codec ID/Info : UTF-8 Plain Text
Duration : 1 h 31 min
Bit rate : 30 b/s
Count of elements : 674
Stream size : 20.1 KiB (0%)
Language : French
Default : No
Forced : No

Text #11
ID : 13
Format : UTF-8
Codec ID : S_TEXT/UTF8
Codec ID/Info : UTF-8 Plain Text
Duration : 1 h 31 min
Bit rate : 49 b/s
Count of elements : 665
Stream size : 33.3 KiB (0%)
Language : Hebrew
Default : No
Forced : No

Text #12
ID : 14
Format : UTF-8
Codec ID : S_TEXT/UTF8
Codec ID/Info : UTF-8 Plain Text
Duration : 1 h 36 min
Bit rate : 25 b/s
Count of elements : 589
Stream size : 17.8 KiB (0%)
Language : Hungarian
Default : No
Forced : No

Text #13
ID : 15
Format : UTF-8
Codec ID : S_TEXT/UTF8
Codec ID/Info : UTF-8 Plain Text
Duration : 1 h 30 min
Bit rate : 26 b/s
Count of elements : 673
Stream size : 17.8 KiB (0%)
Language : Indonesian
Default : No
Forced : No

Text #14
ID : 16
Format : UTF-8
Codec ID : S_TEXT/UTF8
Codec ID/Info : UTF-8 Plain Text
Duration : 1 h 31 min
Bit rate : 29 b/s
Count of elements : 602
Stream size : 19.8 KiB (0%)
Language : Italian
Default : No
Forced : No

Text #15
ID : 17
Format : UTF-8
Codec ID : S_TEXT/UTF8
Codec ID/Info : UTF-8 Plain Text
Duration : 1 h 36 min
Bit rate : 29 b/s
Count of elements : 647
Stream size : 20.7 KiB (0%)
Language : Japanese
Default : No
Forced : No

Text #16
ID : 18
Format : UTF-8
Codec ID : S_TEXT/UTF8
Codec ID/Info : UTF-8 Plain Text
Duration : 1 h 31 min
Bit rate : 27 b/s
Count of elements : 539
Stream size : 18.5 KiB (0%)
Language : Norwegian Bokmal
Default : No
Forced : No

Text #17
ID : 19
Format : UTF-8
Codec ID : S_TEXT/UTF8
Codec ID/Info : UTF-8 Plain Text
Duration : 1 h 31 min
Bit rate : 28 b/s
Count of elements : 482
Stream size : 18.8 KiB (0%)
Language : Dutch
Default : No
Forced : No

Text #18
ID : 20
Format : UTF-8
Codec ID : S_TEXT/UTF8
Codec ID/Info : UTF-8 Plain Text
Duration : 1 h 31 min
Bit rate : 26 b/s
Count of elements : 551
Stream size : 17.5 KiB (0%)
Language : Polish
Default : No
Forced : No

Text #19
ID : 21
Format : UTF-8
Codec ID : S_TEXT/UTF8
Codec ID/Info : UTF-8 Plain Text
Duration : 1 h 31 min
Bit rate : 26 b/s
Count of elements : 564
Stream size : 18.0 KiB (0%)
Title : European
Language : Portuguese
Default : No
Forced : No

Text #20
ID : 22
Format : UTF-8
Codec ID : S_TEXT/UTF8
Codec ID/Info : UTF-8 Plain Text
Duration : 1 h 31 min
Bit rate : 27 b/s
Count of elements : 666
Stream size : 18.4 KiB (0%)
Title : Brazilian
Language : Portuguese
Default : No
Forced : No

Text #21
ID : 23
Format : UTF-8
Codec ID : S_TEXT/UTF8
Codec ID/Info : UTF-8 Plain Text
Duration : 1 h 30 min
Bit rate : 29 b/s
Count of elements : 640
Stream size : 20.0 KiB (0%)
Language : Romanian
Default : No
Forced : No

Text #22
ID : 24
Format : UTF-8
Codec ID : S_TEXT/UTF8
Codec ID/Info : UTF-8 Plain Text
Duration : 1 h 31 min
Bit rate : 45 b/s
Count of elements : 666
Stream size : 30.1 KiB (0%)
Language : Russian
Default : No
Forced : No

Text #23
ID : 25
Format : UTF-8
Codec ID : S_TEXT/UTF8
Codec ID/Info : UTF-8 Plain Text
Duration : 1 h 31 min
Bit rate : 25 b/s
Count of elements : 557
Stream size : 17.0 KiB (0%)
Language : Swedish
Default : No
Forced : No

Text #24
ID : 26
Format : UTF-8
Codec ID : S_TEXT/UTF8
Codec ID/Info : UTF-8 Plain Text
Duration : 1 h 31 min
Bit rate : 73 b/s
Count of elements : 677
Stream size : 49.0 KiB (0%)
Language : Thai
Default : No
Forced : No

Text #25
ID : 27
Format : UTF-8
Codec ID : S_TEXT/UTF8
Codec ID/Info : UTF-8 Plain Text
Duration : 1 h 31 min
Bit rate : 25 b/s
Count of elements : 650
Stream size : 17.1 KiB (0%)
Language : Turkish
Default : No
Forced : No

Text #26
ID : 28
Format : UTF-8
Codec ID : S_TEXT/UTF8
Codec ID/Info : UTF-8 Plain Text
Duration : 1 h 30 min
Bit rate : 41 b/s
Count of elements : 713
Stream size : 27.8 KiB (0%)
Language : Vietnamese
Default : No
Forced : No

Text #27
ID : 29
Format : UTF-8
Codec ID : S_TEXT/UTF8
Codec ID/Info : UTF-8 Plain Text
Duration : 1 h 36 min
Bit rate : 26 b/s
Count of elements : 679
Stream size : 19.0 KiB (0%)
Title : Simplified
Language : Chinese
Default : No
Forced : No

Text #28
ID : 30
Format : UTF-8
Codec ID : S_TEXT/UTF8
Codec ID/Info : UTF-8 Plain Text
Duration : 1 h 34 min
Bit rate : 28 b/s
Count of elements : 729
Stream size : 19.8 KiB (0%)
Title : Traditional
Language : Chinese
Default : No
Forced : No





1 個附件 售價 大小 下載 時間

Pokemon.Mewtwo.Strikes.Back.Evolution.2019.DUBBED.1080p.NF.WEBRip.DDP5.1.x264-SiGLA.torrent 0 金幣 25.68K 3675 次 1月前

#1樓
發帖時間:2020-02-27 17:15:25   |   回復數:5
911degrees
隱世仙人♂
非常感謝,謝謝分享
1月前 #2樓
cliff168
一派掌門
感謝分享好東西
1月前 #3樓
pokuan909
武林高手
謝謝分享
1月前 #4樓
liyouchai
隱世仙人♂
謝謝樓主分享資源
1月前 #5樓
yangbo83222179
一代宗師
謝謝樓主分享
1月前 #6樓
游客組